Служебный роман. Наше время (2011) (Сарик Андреасян) [2011 г., Комедия, Мелодрама, BDRip 1080p]

Ответить на тему
 
Автор
Сообщение

diim ®

Пол:

Стаж: 1 год 10 месяцев

Сообщений: 1033

Репутация: 112 [+] [-]

Пост 24-Дек-2011 14:28

[Цитировать] 

Служебный роман. Наше время (2011) BDRip
Год выпуска: 2011
Страна: Россия
Жанр: Комедия, Мелодрама
Продолжительность: 01:31:00-Режиссер: Сарик Андреасян
В ролях: Светлана Ходченкова, Владимир Зеленский, Марат Башаров, Анастасия Заворотнюк, Павел Воля, Дмитрий Хрусталев, Тимур Родригез, Тигран Кеосаян, Алика Смехова, Иван Охлобыстин
Описание: Наши дни. Людмила Калугина — акула бизнеса, хозяйка рейтингового агентства. Анатолий Новосельцев — финансовый аналитик, фанатичный байкер и отец двоих детей. И жить бы им: ей — в борьбе с конкурентами, ему офисным планктоном, если бы не служебный роман…-Тип релиза: BDRip 1080p
Контейнер: MKV
Видеокодек: MPEG-4 AVC/H.264
Аудиокодек: DTS
Видео: 1920x816 (2.35:1), 23.976 fps, 9 754 Kbps, 0.260 bit/pixel
Аудио: Русский, DTS, 6 ch., 48 kHz, ~1 510 Kbps

MediaInfo

Общее
Уникальный идентификатор : 185564294872433704529453816037966806806 (0x8B9A621A13865D3A8B2CDDAA6706FF16)
Полное имя : D:\Фильмы\Служебный роман. Наше время.mkv
Формат : Matroska
Версия формата : Version 2
Размер файла : 7,32 Гбайт
Продолжительность : 1 ч. 31 м.
Общий поток : 11,5 Мбит/сек
Дата кодирования : UTC 2011-06-16 20:20:55
Программа кодирования : mkvmerge v4.8.0 ('I Got The...') built on May 24 2011 03:12:58
Библиотека кодирования : libebml v1.2.0 + libmatroska v1.1.0
Видео
Идентификатор : 1
Формат : AVC
Формат/Информация : Advanced Video Codec
Профиль формата : High@L4.1
Параметр CABAC формата : Да
Параметр ReFrames формата : 5 кадров
Идентификатор кодека : V_MPEG4/ISO/AVC
Продолжительность : 1 ч. 31 м.
Битрейт : 9999 Кбит/сек
Ширина : 1920 пикс.
Высота : 816 пикс.
Соотношение сторон : 2,35:1
Частота кадров : 23,976 кадр/сек
Цветовое пространство : YUV
Подвыборка цветности : 4:2:0
Битовая глубина : 8 бит
Тип развёртки : Прогрессивная
Бит/(Пиксели*Кадры) : 0.266
Размер потока : 6,21 Гбайт (85%)
Библиотека кодирования : x264 core 115 r1995 c1e60b9
Настройки программы : cabac=1 / ref=5 / deblock=1:-3:-3 / analyse=0x3:0x133 / me=umh / subme=9 / psy=1 / psy_rd=1.05:0.10 / mixed_ref=1 / me_range=64 / chroma_me=1 / trellis=2 / 8x8dct=1 / cqm=0 / deadzone=21,11 / fast_pskip=1 / chroma_qp_offset=-3 / threads=6 / sliced_threads=0 / nr=0 / decimate=1 / interlaced=0 / bluray_compat=0 / constrained_intra=0 / bframes=6 / b_pyramid=2 / b_adapt=1 / b_bias=0 / direct=1 / weightb=1 / open_gop=0 / weightp=2 / keyint=250 / keyint_min=23 / scenecut=40 / intra_refresh=0 / rc_lookahead=40 / rc=2pass / mbtree=1 / bitrate=9999 / ratetol=1.0 / qcomp=0.60 / qpmin=0 / qpmax=69 / qpstep=4 / cplxblur=20.0 / qblur=0.5 / vbv_maxrate=50000 / vbv_bufsize=62500 / nal_hrd=none / ip_ratio=1.40 / aq=1:1.00
Язык : Russian
Аудио
Идентификатор : 2
Формат : DTS
Формат/Информация : Digital Theater Systems
Идентификатор кодека : A_DTS
Продолжительность : 1 ч. 31 м.
Вид битрейта : Постоянный
Битрейт : 1510 Кбит/сек
Каналы : 6 каналов
Расположение каналов : Front: L C R, Side: L R, LFE
Частота : 48,0 КГц
Битовая глубина : 24 бит
Метод сжатия : С потерями
Задержка видео : 11 мс.
Размер потока : 983 Мбайт (13%)
Язык : Russian

Скриншоты

[Торрент-статистика]
[Профиль]  [ЛС] 
Показать сообщения:    
Ответить на тему

Текущее время: Сегодня 14:42

Часовой пояс: GMT + 4



Вы не можете начинать темы
Вы не можете отвечать на сообщения
Вы не можете редактировать свои сообщения
Вы не можете удалять свои сообщения
Вы не можете голосовать в опросах
Вы не можете прикреплять файлы к сообщениям
Вы не можете скачивать файлы