Курьер из «Рая» (Михаил Хлебородов) [2013 г., комедия, приключения, WEB-DL 720p]

Ответить на тему
 
Автор
Сообщение

TiZAr ®

Пол:

Стаж: 3 года 3 месяца

Сообщений: 836

Репутация: 1157 [+] [-]

Откуда: Россия

Пост 31-Дек-2013 08:25

[Цитировать] 

Курьер из «Рая»
«Рай есть!»
- Год выпуска: 2013
Страна: Россия / Дирекция Кино, Про-Синема продакшн
Жанр: комедия, приключения
Продолжительность: 01:32:26
Режиссер: Михаил Хлебородов- -В ролях:
Евгений Ткачук, Елизавета Боярская, Гоша Куценко, Дмитрий Дюжев, Игорь Скляр, Дмитрий Нагиев, Артем Ткаченко, Екатерина Климова, Екатерина Федулова, Олег Тактаров и др.
Описание:
Егор Глазунов работает в криминальной полиции столицы и обладает удивительным даром — «врать с листа». Это умение очень выручает его в далёком маленьком городе, которых на карте России великое множество. Сюда Глазунов отправляется помочь другу детства Артёму — обычному курьеру с необычными принципами, у которого угнали доставшийся ему по странному стечению обстоятельств «Мерседес». Все следы ведут к местному авторитету, подобраться к которому невозможно. Последний шанс — прийти с «проверкой» из «следственного комитета». Сюжет гоголевского «Ревизора» превращается в историю новой России.
Доп. информация: оригинальное оглавление, как на Blu-Ray.
Тип релиза: WEB-DL 720p | Сэмпл
Контейнер: MKV
Видео кодек: H264 (AVC)
Аудио кодек: AC3 (Dolby Digital)
Видео: AVC, 1280x540 (2.35:1), 24.000 fps, 3 795 Kbps (0.229 bit/pixel)
Аудио: AC-3, 48.0 KHz, 6 ch, 384 Kbps, CBR (Russian)

MI

Код:
General
Unique ID                                : 188783995440229763970904283867865580926 (0x8E0679988C293D589BDA8CE64D06857E)
Complete name                            : E:\downloads\Kuryer.iz.Raja.2013.O.WEB-DL.720p.mkv
Format                                   : Matroska
Format version                           : Version 2
File size                                : 2.75 GiB
Duration                                 : 1h 32mn
Overall bit rate                         : 4 264 Kbps
Encoded date                             : UTC 2013-12-30 21:18:30
Writing application                      : mkvmerge v5.0.1 ('Es ist Sommer') built on Oct 24 2011 19:45:06
Writing library                          : libebml v1.2.2 + libmatroska v1.3.0
Video
ID                                       : 1
Format                                   : AVC
Format/Info                              : Advanced Video Codec
Format profile                           : Main@L3.1
Format settings, CABAC                   : No
Format settings, ReFrames                : 2 frames
Codec ID                                 : V_MPEG4/ISO/AVC
Duration                                 : 1h 32mn
Bit rate                                 : 3 795 Kbps
Width                                    : 1 280 pixels
Height                                   : 540 pixels
Display aspect ratio                     : 2.40:1
Frame rate mode                          : Constant
Frame rate                               : 24.000 fps
Color space                              : YUV
Chroma subsampling                       : 4:2:0
Bit depth                                : 8 bits
Scan type                                : Progressive
Bits/(Pixel*Frame)                       : 0.229
Stream size                              : 2.45 GiB (89%)
Language                                 : English
Default                                  : Yes
Forced                                   : No
Color primaries                          : BT.709
Transfer characteristics                 : BT.709
Matrix coefficients                      : BT.709
Audio
ID                                       : 2
Format                                   : AC-3
Format/Info                              : Audio Coding 3
Mode extension                           : CM (complete main)
Format settings, Endianness              : Big
Codec ID                                 : A_AC3
Duration                                 : 1h 32mn
Bit rate mode                            : Constant
Bit rate                                 : 384 Kbps
Channel count                            : 6 channels
Channel positions                        : Front: L C R, Side: L R, LFE
Sampling rate                            : 48.0 KHz
Bit depth                                : 16 bits
Compression mode                         : Lossy
Stream size                              : 254 MiB (9%)
Language                                 : Russian
Default                                  : Yes
Forced                                   : No
Menu
00:00:00.000                             : en:Глава 1
00:06:53.000                             : en:Глава 2
00:11:54.000                             : en:Глава 3
00:17:00.000                             : en:Глава 4
00:22:03.000                             : en:Глава 5
00:27:16.000                             : en:Глава 6
00:32:18.000                             : en:Глава 7
00:37:20.000                             : en:Глава 8
00:42:20.000                             : en:Глава 9
00:47:23.000                             : en:Глава 10
00:52:26.000                             : en:Глава 11
00:57:30.000                             : en:Глава 12
01:02:35.000                             : en:Глава 13
01:07:35.000                             : en:Глава 14
01:12:38.000                             : en:Глава 15
01:17:42.000                             : en:Глава 16
01:22:43.000                             : en:Глава 17

Скриншоты


_________________
Не стоит обращать внимания на отсутствие сидов на моих раздачах. Все мои релизы мультитрекерные - нет сидов, включите DHT.
За релизами в HD качестве обращайтесь в личку, либо отписывайтесь в теме.
[Торрент-статистика]
[Профиль]  [ЛС] 
Показать сообщения:    
Ответить на тему

Текущее время: Сегодня 16:35

Часовой пояс: GMT + 4



Вы не можете начинать темы
Вы не можете отвечать на сообщения
Вы не можете редактировать свои сообщения
Вы не можете удалять свои сообщения
Вы не можете голосовать в опросах
Вы не можете прикреплять файлы к сообщениям
Вы не можете скачивать файлы