Беременный (Сарик Андреасян) [2011 г., комедия, BDRemux]

Ответить на тему
 
Автор
Сообщение

diim ®

Пол:

Стаж: 1 год 10 месяцев

Сообщений: 1033

Репутация: 112 [+] [-]

Пост 16-Дек-2011 16:42

[Цитировать] 

БеременныйГод выпуска: 2011
Страна: Россия
Жанр: комедия
Продолжительность: 01:23:54
Режиссер: Сарик Андреасян
В ролях: Дмитрий Дюжев, Михаил Галустян, Анна Седокова, Светлана Ходченкова, Дмитрий Шаракоис, Вилле Хаапасало, Юлия Гришина, Виктор Васильев, Дмитрий Хрусталев, Людмила Артемьева
Описание: Главный герой - ведущий новостей на музыкальном канале Сергей Добролюбов. Своим консерватизмом он явно выбивается из коллектива модного канала. Его скепсис по отношению к чему-то новому - повод для насмешек коллег. Он точно не «звезда» канала.
Сергей с женой очень хотят ребенка, но у них есть с этим проблемы. Помочь им может чудо, но Сергей в чудеса не верит... до определенного момента.
Чудесным образом желание Сергея иметь ребенка исполняется... он беременеет?! Теперь уже нашему герою предстоит выступить перед близкими живым доказательством того, что чудеса случаются! Особенно символично, что эту новость жена, родители, брат, друг Жора узнали за ужином в честь Дня защитников Отечества. У последнего оказался вполне практичный подход к чуду. Жора убедил Сергея, что беременность не повод скрываться, а возможность обрести славу и деньги. Шоу «Беременный» становится самым популярным телевизионным проектом, а его главный герой - Сергей Добролюбов - настоящей звездой. Но совмещение статусов «мужчины, ждущего ребенка» и «звезды» оказывается непростой задачей.-Дата мировой премьеры: 21 июля 2011
Премьера РФ: 8 сентября 2011, «Каропрокат»
Релиз на DVD: 6 октября 2011, «Новый Диск»
Релиз на Blu-Ray: 8 декабря 2011, «Новый Диск»-Качество: BDRemux
Контейнер: MKV
Видеокодек: MPEG-2 Video
Аудиокодек: AC-3
Видео: 1920x1080, 25 Mbps (24,000 fps, 16:9, Main@High)
Аудио: AC-3, 640 kbps Kbps, 48.0 KГц, 16 бит, 6 ch

MediaInfo

Формат : Matroska
Версия формата : Version 2
Размер файла : 13,6 Гбайт
Продолжительность : 1 ч. 23 м.
Режим общего битрейта : Переменный
Общий поток : 23,3 Мбит/сек
Дата кодирования : UTC 2011-12-12 17:19:35
Программа кодирования : mkvmerge v5.0.0 ('Die Wahre Liebe') built on Sep 25 2011 20:33:49
Библиотека кодирования : libebml v1.2.2 + libmatroska v1.3.0
Видео
Идентификатор : 1
Формат : MPEG Video
Версия формата : Version 2
Профиль формата : Main@High
Параметр BVOP формата : Нет
Параметр матрицы формата : По умолчанию
Идентификатор кодека : V_MPEG2
Идентификатор кодека/Информация : MPEG 1 or 2 Video
Продолжительность : 1 ч. 23 м.
Вид битрейта : Переменный
Битрейт : 22,1 Мбит/сек
Максимальный битрейт : 25,0 Мбит/сек
Ширина : 1920 пикселей
Высота : 1080 пикселей
Соотношение сторон : 16:9
Частота кадров : 24,000 кадра/сек
Цветовое пространство : YUV
Субдискретизация насыщенности : 4:2:0
Битовая глубина : 8 бит
Тип развёртки : Прогрессивная
Метод сжатия : С потерями
Бит/(Пиксели*Кадры) : 0.445
Размер потока : 13,0 Гбайт (95%)
Заголовок : Beremenniy (2011) BDRemux (by sergey2925 for NNM-Club.ru)
Язык : Russian
Аудио
Идентификатор : 2
Формат : AC-3
Формат/Информация : Audio Coding 3
Расширение режима : CM (complete main)
Идентификатор кодека : A_AC3
Продолжительность : 1 ч. 23 м.
Вид битрейта : Постоянный
Битрейт : 640 Кбит/сек
Каналы : 6 каналов
Расположение каналов : Front: L C R, Side: L R, LFE
Частота : 48,0 КГц
Битовая глубина : 16 бит
Метод сжатия : С потерями
Размер потока : 384 Мбайт (3%)
Заголовок : AC-3_3/2+1
Язык : Russian
Меню
00:00:00.000 : en:Chapter 00
00:00:21.458 : en:Chapter 01
00:17:19.375 : en:Chapter 02
00:32:40.125 : en:Chapter 03
00:48:33.583 : en:Chapter 04
01:04:54.541 : en:Chapter 05
01:20:54.500 : en:Chapter 06

Скриншоты

[Торрент-статистика]
[Профиль]  [ЛС] 
Показать сообщения:    
Ответить на тему

Текущее время: Сегодня 16:31

Часовой пояс: GMT + 4



Вы не можете начинать темы
Вы не можете отвечать на сообщения
Вы не можете редактировать свои сообщения
Вы не можете удалять свои сообщения
Вы не можете голосовать в опросах
Вы не можете прикреплять файлы к сообщениям
Вы не можете скачивать файлы