Юристы Бостона / Boston Legal / Сезон: 1 / Серия 1-17 (17) (Дэвид Э. Келли, Стив Робин, Билл Д`Илайн) [2004 г., Драма, комедия , DVDRip-AVC] (НТВ Плюс)

Ответить на тему
 
Автор
Сообщение

awk05 ®

Пол:

Стаж: 8 лет 4 месяца

Сообщений: 1334

Репутация: 275 [+] [-]

Откуда: Западная Украина Ривне

Пост 02-Янв-2014 17:19

[Цитировать] 

-- Юристы Бостона / Boston Legal -- Год выпуска: 2004
Страна: США
Жанр: Драма, комедия
Сезон/Серия: Сезон: 1 Серия 1-17 из 17
Перевод: профессиональный многоголосый закадровый (НТВ Плюс)
Продолжительность: 17 х ~ 00:42:00
Субтитры: нет--Режиссёр: Дэвид Э. Келли, Стив Робин, Билл Д`Илайн--В ролях: Джеймс Спейдер (Алан Шор), Уильям Шэтнер (Дэнни Крейн), Кэндис Берген (Ширли Шмидт), Марк Вэлли (Брэд Чейз), Рене Оберженуа (Пол Льюистон), Моника Поттер (Лори Колсон), Рона Митра (Тара Уилсон), Лэйк Белл (Салли Хип).--При участии: Бетти Уайт (Кэтрин Пайпер), Генри Гибсон (судья Кларк Браун), Лесли Джордан (Бернард Ферион), Ларри Миллер (Эдвин Пул), Керри Вашингтон (Челина Холл).
Приглашенные звезды: Карл Райнер (Милтон Бомбей), Дана Дилэйни (Саманта Флеминг), Шелли Лонг (Мириам Уотсон), Фредди Принц мл (Донни Крейн), Элизабет Митчелл (Кристин Поули), Шэрон Лоуренс (судья Рита Шарпли), Дэвид Кленнон (Брэкстон Мейсон), Филип Бейкер Холл (Эрни Делл), Роки Кэрролл (Джон Шуберт), Уильям Атертон (Говард Зейл), Майкл О`Нил (Роберт Маклин), Чи МакБрайд (Стивен Харпер).--Описание: В каждой профессии бывают посредственности, бывают подающие надежды, а бывают - настоящие профи. В бостонской юридической фирме ""Крейн, Пул и Шмидт"" ни те, ни другие, ни третьи не нужны, потому что таких полно повсюду. В ""Крейн, Пул и Шмидт"" работают только те, кто готов обставить всех и вся в искусстве манипуляции законом и правосудием. Денни Крейн, матёрый адвокат и духовный лидер всей компании, задаёт своим мастерством тон работе всей конторы. Алан Шор, молодой и гениальный адвокат, который способен в один момент обойти закон, а в другой - защитить слабого с его помощью. Эти герои берутся за любое дело и заранее знают, что его не проиграют.
Искромётный юмор и неожиданные повороты сюжета - вот те две составляющие отличного сериала, благодаря которым вы не оторвётесь от экрана, пока судья не стукнет молотком по столу и не скажет ""Слушание окончено"".--Качество: DVDRip-AVC
Формат: MKV
Видео кодек:: H.264
Аудио кодек:: AC3
Видео: 720х480 , 16:9 , 23.976 fps , ~1913 kbps avg , 0.231 bit/pixel
Аудио 1: 2 channels , 48 kHz , 192 kbps avg |НТВ Плюс|
Аудио 2: 2 channels , 48 kHz , 192 kbps avg |English|-- --

MediaInfo

"Общее
Уникальный идентификатор : 191811329533079454843818306381622199765 (0x904D84B0C0F74FB0922817A08712C5D5)
Полное имя : C:\Boston Legal 1 NTV\Boston Legal 01-01 NTV.mkv
Формат : Matroska
Размер файла : 723 Мбайт
Продолжительность : 43 м.
Общий поток : 2344 Кбит/сек
Дата кодирования : UTC 2012-04-23 18:45:43
Программа кодирования : mkvmerge v5.5.0 ('Healer') built on Apr 6 2012 21:43:24
Библиотека кодирования : libebml v1.2.3 + libmatroska v1.3.0
Видео
Идентификатор : 1
Формат : AVC
Формат/Информация : Advanced Video Codec
Профиль формата : High@L4.1
Параметр CABAC формата : Да
Параметр ReFrames формата : 5 кадров
Идентификатор кодека : V_MPEG4/ISO/AVC
Продолжительность : 43 м.
Вид битрейта : Переменный
Битрейт : 1913 Кбит/сек
Максимальный битрейт : 40,0 Мбит/сек
Ширина : 720 пикс.
Высота : 480 пикс.
Соотношение сторон : 16:9
Соотношение сторон в оригинале : 16:9
Частота кадров : 23,976 кадр/сек
Стандарт вещания : NTSC
Цветовое пространство : YUV
Подвыборка цветности : 4:2:0
Битовая глубина : 8 бит
Тип развёртки : Прогрессивная
Бит/(Пиксели*Кадры) : 0.231
Размер потока : 591 Мбайт (82%)
Библиотека кодирования : x264 core 98 r1643 59a9e03
Настройки программы : cabac=1 / ref=5 / deblock=1:-1:-1 / analyse=0x3:0x113 / me=tesa / subme=7 / psy=1 / psy_rd=1.00:0.00 / mixed_ref=1 / me_range=16 / chroma_me=1 / trellis=0 / 8x8dct=1 / cqm=0 / deadzone=21,11 / fast_pskip=0 / chroma_qp_offset=-2 / threads=9 / sliced_threads=0 / nr=0 / decimate=1 / interlaced=0 / constrained_intra=0 / bframes=3 / b_pyramid=2 / b_adapt=1 / b_bias=0 / direct=3 / weightb=1 / weightp=2 / keyint=240 / keyint_min=24 / scenecut=40 / intra_refresh=0 / rc_lookahead=40 / rc=crf / mbtree=1 / crf=17.0 / qcomp=0.60 / qpmin=10 / qpmax=51 / qpstep=4 / vbv_maxrate=50000 / vbv_bufsize=50000 / crf_max=0.0 / ip_ratio=1.40 / aq=1:1.00 / nal_hrd=non
Аудио #1
Идентификатор : 2
Формат : AC-3
Формат/Информация : Audio Coding 3
Расширение режима : CM (complete main)
Идентификатор кодека : A_AC3
Продолжительность : 43 м.
Вид битрейта : Постоянный
Битрейт : 192 Кбит/сек
Каналы : 2 канала
Расположение каналов : Front: L R
Частота : 48,0 КГц
Битовая глубина : 16 бит
Размер потока : 59,3 Мбайт (8%)
Заголовок : RUS
Язык : Russian
Аудио #2
Идентификатор : 3
Формат : AC-3
Формат/Информация : Audio Coding 3
Профиль формата : Dolby Digital
Расширение режима : CM (complete main)
Идентификатор кодека : A_AC3
Продолжительность : 43 м.
Вид битрейта : Постоянный
Битрейт : 192 Кбит/сек
Каналы : 2 канала
Расположение каналов : Front: L R
Частота : 48,0 КГц
Битовая глубина : 16 бит
Размер потока : 59,3 Мбайт (8%)
Заголовок : ENG
Язык : English"

Список серий

1 сезон, серия 01 - "Head Cases"
1 сезон, серия 02 - "Still Crazy After All These Years"
1 сезон, серия 03 - "Catch and Release"
1 сезон, серия 04 - "Change of Course"
1 сезон, серия 05 - "An Eye for an Eye"
1 сезон, серия 06 - "Truth be told"
1 сезон, серия 07 - "Questionable Characters"
1 сезон, серия 08 - "Loose Lips"
1 сезон, серия 09 - "A Greater Good"
1 сезон, серия 10 - "Hired Guns"
1 сезон, серия 11 - "Schmidt Happens"
1 сезон, серия 12 - "From Whence We Came"
1 сезон, серия 13 - "It Girls and Beyond"
1 сезон, серия 14 - "Til We Meat Again"
1 сезон, серия 15 - "Tortured Souls"
1 сезон, серия 16 - "Let Sales Ring"
1 сезон, серия 17 - "Death Be Not Proud"
«СЕЗОН 1» «СЕЗОН 2» «СЕЗОН 3» «СЕЗОН 4» «СЕЗОН 5»

_________________
[Торрент-статистика]
[Профиль]  [ЛС] 
Показать сообщения:    
Ответить на тему

Текущее время: Сегодня 15:17

Часовой пояс: GMT + 4



Вы не можете начинать темы
Вы не можете отвечать на сообщения
Вы не можете редактировать свои сообщения
Вы не можете удалять свои сообщения
Вы не можете голосовать в опросах
Вы не можете прикреплять файлы к сообщениям
Вы не можете скачивать файлы