Эврика / Eureka / Сезон: 4 / Серии 1-21 из 21 (Майк Рол, Майкл Ланж, Майкл Робисан) [2010 г., фантастика, комедия, драма, детектив, WEB-DLRip] (LostFilm)

Ответить на тему
 
Автор
Сообщение

awk05 ®

Пол:

Стаж: 8 лет 4 месяца

Сообщений: 1334

Репутация: 278 [+] [-]

Откуда: Западная Украина Ривне

Пост 31-Окт-2013 06:08

[Цитировать] 

-- --Эврика / Eureka«Small town. Big secret» --Страна: США / SyFy
Жанр: фантастика, комедия, драма, детектив
Год выпуска: 2010
Сезон/Серия: Сезон:4 / Серия 1-21 из 21
Продолжительность: 21 х ~ 00:44:00
Перевод: Профессиональный (многоголосый закадровый)
Озвучка / Автор перевода: LostFilm
Cубтитры: нет--Режиссер: Майк Рол, Майкл Ланж, Майкл Робисан--В ролях: Колин Фергюсон (Jack Carter), Салли Ричардсон-Уитфилд (Allison Blake), Эрика Серра (Jo Lupo), Нил Грэйстон (Douglas Fargo), Джо Мортон (Henry Deacon), Крис Готье (Vincent), Джордан Хинсон (Zoe Carter), Найолл Мэттер (Zane Donovan), Эд Куинн (Nathan Stark), Дебра Фарентино (Beverly Barlowe), Темби Лок (Grace Monroe), Кристофер Жако (Larry Haberman), Каван Смит (Deputy Andy 2.0), Фелиша Дэй (Holly Marten), и др.--Описание: Поскольку Вторая Мировая Война закончилась уничтожением Хиросимы и Нагасаки, наука и изобретения стали приоритетными во всем мире. Америка чуть не проиграла гонку с атомными бомбами; это не должно повториться.
С помощью Альберта Эйнштейна и других доверенных советников, Президент Гарри С. Труман уполномочил начать заселение удаленной области Тихоокеанского Северо-запада, чтобы сохранить интеллектуальные ценности Америки. Там величайшие умы, вундеркинды, были бы в состоянии жить и работать в благосклонной окружающей среде. Лучшие архитекторы и планировщики были уполномочены построить такое место для этих превосходных гениев, где бы они жили и имели лучшее образование для своих детей, лучшую систему здравоохранения, все для комфортного проживания жизни. Это общество жило бы так же, как все, но с небольшим различием: этот город не обозначен ни на одной карте. О нем никто не знает, кроме Пентагона.
Так появился город Эврика. Но в этом маленьком городе все совсем не так, как в других маленьких городах. Большинство «квантовых прыжков» в науке и технике в течение 50 лет было произведено именно элитными исследователями из Эврики. К сожалению, научные исследования всегда непредсказуемы, и годы экспериментов привели к некоторым побочным явлениям.
От невостребованной любви до профессиональной ревности, от склонности до депрессии, проблемы горожан Эвреки увеличиваются с каждым днем. Но с уникальными талантами населения и безграничными ресурсами, эти провинциальные проблемы могут стать большими проблемами. Именно там, где человеческая непрочность и супернаука сталкиваются, Эврика, начинается…--Качество видео: WEB-DLRip
Формат видео: AVI
Видео кодек: MPEG4, XviD
Аудио кодек: MP3
Видео: MPEG4, XviD, 704x400 (16:9), 23.976 fps, 1 266 Kbps (0.187 bit/pixel)
Аудио: MP3, 48.0 KHz, 2 ch, 192 Kbps, CBR, 16 bits [Русский] -- --

Список серий

01. День основателей (Founder's Day)
02. Новый мир (A New World)
03. Гнев - начало безумия (All the Rage)
04. История с О2 (The Story of O2)
05. Переход (Crossing Over)
06. Мамонстр (Momstrosity)
07. Сердце - не камень (Stoned)
08. Гости из прошлого (The Ex-Files)
09. Мы встретимся вновь (I'll Be Seeing You)
10. Родной городок (O Little Town)
11. Пуск (Liftoff)
12. На бис (Reprise)
13. Мимолетное виденье (Glimpse)
14. В воздухе (Up in the Air)
15. Мегадевчонки (Omega Girls)
16. Про клещей и людей (Of Mites and Men)
17. Битва Титанов (Clash of the Titans)
18. В тот день в космическом лагере (This One Time at Space Camp...)
19. Один маленький шаг (One Small Step)
20. Один гигантский скачок (One Giant Leap)
21. Ты видишь то же, что и я? (Do You See What I See)

Тех. данные (MI)

Код:
General
Complete name                    : C:\Eureka - Season 4\Eureka.s04e10.rus.LostFilm.TV.avi
Format                           : AVI
Format/Info                      : Audio Video Interleave
File size                        : 462 MiB
Duration                         : 44mn 1s
Overall bit rate                 : 1 467 Kbps
Writing application              : Nandub v1.0rc2
Writing library                  : Nandub build 1853/release
Video
ID                               : 0
Format                           : MPEG-4 Visual
Format profile                   : Advanced Simple@L5
Format settings, BVOP            : Yes
Format settings, QPel            : No
Format settings, GMC             : No warppoints
Format settings, Matrix          : Custom
Codec ID                         : XVID
Codec ID/Hint                    : XviD
Duration                         : 44mn 1s
Bit rate                         : 1 266 Kbps
Width                            : 704 pixels
Height                           : 400 pixels
Display aspect ratio             : 16:9
Frame rate                       : 23.976 fps
Resolution                       : 8 bits
Colorimetry                      : 4:2:0
Scan type                        : Progressive
Bits/(Pixel*Frame)               : 0.187
Stream size                      : 399 MiB (86%)
Writing library                  : XviD 1.2.1 (UTC 2008-12-04)
Audio
ID                               : 1
Format                           : MPEG Audio
Format version                   : Version 1
Format profile                   : Layer 3
Format_Settings_Mode             : Joint stereo
Format_Settings_ModeExtension    : MS Stereo
Codec ID                         : 55
Codec ID/Hint                    : MP3
Duration                         : 44mn 1s
Bit rate mode                    : Variable
Bit rate                         : 188 Kbps
Nominal bit rate                 : 192 Kbps
Channel(s)                       : 2 channels
Sampling rate                    : 48.0 KHz
Stream size                      : 59.2 MiB (13%)
Alignment                        : Aligned on interleaves
Interleave, duration             : 24 ms (0.58 video frame)
Interleave, preload duration     : 502 ms
Writing library                  : LAME3.97b
Encoding settings                : -m j -V 4 -q 3 -lowpass 18.6 --abr 192

Кадры из фильма

«СЕЗОН 1» «СЕЗОН 2»«СЕЗОН 3» «СЕЗОН 4»«СЕЗОН 5»

_________________
[Торрент-статистика]
[Профиль]  [ЛС] 
Показать сообщения:    
Ответить на тему

Текущее время: Сегодня 06:43

Часовой пояс: GMT + 4



Вы не можете начинать темы
Вы не можете отвечать на сообщения
Вы не можете редактировать свои сообщения
Вы не можете удалять свои сообщения
Вы не можете голосовать в опросах
Вы не можете прикреплять файлы к сообщениям
Вы не можете скачивать файлы