Эврика / Eureka / Сезон: 3 / Серии: 1-18 из 18 (Майк Рол, Майкл Ланж, Майкл Робисан) [2008 г., фантастика, драма, комедия, WEB-DLRip] MVO (СТС)

Ответить на тему
 
Автор
Сообщение

awk05 ®

Пол:

Стаж: 8 лет 4 месяца

Сообщений: 1334

Репутация: 275 [+] [-]

Откуда: Западная Украина Ривне

Пост 31-Окт-2013 05:57

[Цитировать] 

-- --Эврика / Eureka«Small town. Big secret»-- Страна: США / SyFy
Жанр: фантастика, комедия, драма, детектив
Год выпуска: 2008
Сезон/Серия: Сезон:3 / Серия 1-18 из 18
Продолжительность:18 х ~ 00:43:00
Перевод: Профессиональный (многоголосый закадровый)
Озвучка / Автор перевода: СТС
Cубтитры: нет--Режиссер: Майк Рол, Майкл Ланж, Майкл Робисан--В ролях: Колин Фергюсон (Jack Carter), Салли Ричардсон-Уитфилд (Allison Blake), Эрика Серра (Jo Lupo), Нил Грэйстон (Douglas Fargo), Джо Мортон (Henry Deacon), Крис Готье (Vincent), Джордан Хинсон (Zoe Carter), Найолл Мэттер (Zane Donovan), Эд Куинн (Nathan Stark), Дебра Фарентино (Beverly Barlowe), Темби Лок (Grace Monroe), Кристофер Жако (Larry Haberman), Каван Смит (Deputy Andy 2.0), Фелиша Дэй (Holly Marten), и др.--Описание: Поскольку Вторая Мировая Война закончилась уничтожением Хиросимы и Нагасаки, наука и изобретения стали приоритетными во всем мире. Америка чуть не проиграла гонку с атомными бомбами; это не должно повториться.
С помощью Альберта Эйнштейна и других доверенных советников, Президент Гарри С. Труман уполномочил начать заселение удаленной области Тихоокеанского Северо-запада, чтобы сохранить интеллектуальные ценности Америки. Там величайшие умы, вундеркинды, были бы в состоянии жить и работать в благосклонной окружающей среде. Лучшие архитекторы и планировщики были уполномочены построить такое место для этих превосходных гениев, где бы они жили и имели лучшее образование для своих детей, лучшую систему здравоохранения, все для комфортного проживания жизни. Это общество жило бы так же, как все, но с небольшим различием: этот город не обозначен ни на одной карте. О нем никто не знает, кроме Пентагона.
Так появился город Эврика. Но в этом маленьком городе все совсем не так, как в других маленьких городах. Большинство «квантовых прыжков» в науке и технике в течение 50 лет было произведено именно элитными исследователями из Эврики. К сожалению, научные исследования всегда непредсказуемы, и годы экспериментов привели к некоторым побочным явлениям.
От невостребованной любви до профессиональной ревности, от склонности до депрессии, проблемы горожан Эвреки увеличиваются с каждым днем. Но с уникальными талантами населения и безграничными ресурсами, эти провинциальные проблемы могут стать большими проблемами. Именно там, где человеческая непрочность и супернаука сталкиваются, Эврика, начинается…--Качество видео: WEB-DLRip
Формат видео: AVI
Видео кодек: MPEG4, XviD
Аудио кодек: AC-3
Видео: MPEG4, XviD, 720x400 (16:9), 23.976 fps, 1 200 Kbps (0.180 bit/pixel)
Аудио 1: AC-3, 48.0 KHz, 2 ch, 192 Kbps, CBR, 16 bits [Русский]
Аудио 2: AC-3, 48.0 KHz, 2 ch, 192 Kbps, CBR, 16 bits [Английский] -- --

Список серий

01. Сбежавший робот / Bad to the Drone
02. Что случилось с Бобом? / What About Bob?
03. Искусственные друзья / Best in Faux
04. Я снова согласна / I Do Over
05. Покажите мне мумию / Show Me the Mummy
06. Не в той частоте / Phased and Confused
07. А вот и солнышки / Here Come the Suns
08. Вечный покой / From Fear to Eternity
09. С возвращением, Картер / Welcome Back Carter
10. Твоё лицо или моё / Your Face or Mine
11. Безумие в Пи-бране / Insane in the P-Brane
12. Нелегко быть зелёным / It's Not Easy Being Green
13. Если вы его построите… / If You Build It…
14. Подарочек из космоса / Ship Happens
15. Вода жизни / Shower the People
16. Вы не знаете Джека / You Don't Know Jack
17. Холодного дня! / Have an Ice Day
18. Что посеешь, то и пожнёшь / What Goes Around, Comes Around

Тех. данные (MI)

Код:
Общее
Полное имя : Eureka.s03.WEB-DLRip.Rus.Eng.CTC\Eureka.s03e01.WEB-DLRip.Rus.Eng.CTC.avi
Формат : AVI
Формат/Информация : Audio Video Interleave
Размер файла : 500 Мбайт
Продолжительность : 43 м.
Общий поток : 1600 Кбит/сек
Программа кодирования : VirtualDubMod 1.5.10.2 (build 2540/release)
Библиотека кодирования : VirtualDubMod build 2540/release
Видео
Идентификатор : 0
Формат : MPEG-4 Visual
Профиль формата : Advanced Simple@L5
Параметр BVOP формата : 1
Параметр QPel формата : Нет
Параметр GMC формата : Без точки перехода
Параметр матрицы формата : Выборочная
Идентификатор кодека : XVID
Идентификатор кодека/Подсказка : XviD
Продолжительность : 43 м.
Битрейт : 1202 Кбит/сек
Ширина : 720 пикселей
Высота : 400 пикселей
Соотношение сторон : 16:9
Частота кадров : 23,976 кадра/сек
Цветовое пространство : YUV
Субдискретизация насыщенности : 4:2:0
Битовая глубина : 8 бит
Тип развёртки : Прогрессивная
Метод сжатия : С потерями
Бит/(Пиксели*Кадры) : 0.174
Размер потока : 376 Мбайт (75%)
Библиотека кодирования : XviD 65
Аудио #1
Идентификатор : 1
Формат : AC-3
Формат/Информация : Audio Coding 3
Расширение режима : CM (complete main)
Параметр Endianness формата : Big
Идентификатор кодека : 2000
Продолжительность : 43 м.
Вид битрейта : Постоянный
Битрейт : 192 Кбит/сек
Каналы : 2 канала
Расположение каналов : Front: L R
Частота : 48,0 КГц
Битовая глубина : 16 бит
Метод сжатия : С потерями
Размер потока : 60,0 Мбайт (12%)
Выравнивание : Разделение по промежуткам
Продолжительность промежутка : 42 мс. (1,00 видеокадр)
Время предзагрузки промежутка : 500 мс.
Аудио #2
Идентификатор : 2
Формат : AC-3
Формат/Информация : Audio Coding 3
Расширение режима : CM (complete main)
Параметр Endianness формата : Big
Идентификатор кодека : 2000
Продолжительность : 43 м.
Вид битрейта : Постоянный
Битрейт : 192 Кбит/сек
Каналы : 2 канала
Расположение каналов : Front: L R
Частота : 48,0 КГц
Битовая глубина : 16 бит
Метод сжатия : С потерями
Размер потока : 60,0 Мбайт (12%)
Выравнивание : Разделение по промежуткам
Продолжительность промежутка : 42 мс. (1,00 видеокадр)
Время предзагрузки промежутка : 500 мс.

Кадры из фильма



«СЕЗОН 1» «СЕЗОН 2»«СЕЗОН 3» «СЕЗОН 4» «СЕЗОН 5»

_________________
[Торрент-статистика]
[Профиль]  [ЛС] 
Показать сообщения:    
Ответить на тему

Текущее время: Сегодня 12:27

Часовой пояс: GMT + 4



Вы не можете начинать темы
Вы не можете отвечать на сообщения
Вы не можете редактировать свои сообщения
Вы не можете удалять свои сообщения
Вы не можете голосовать в опросах
Вы не можете прикреплять файлы к сообщениям
Вы не можете скачивать файлы