Эврика / Eureka / Сезон: 1 / Серии: 1-12 из 12 (Майк Рол, Майкл Ланж, Майкл Робисан) [2006, фантастика, комедия, драма, детектив, WEB-DLRip 400p] (СТС)

Ответить на тему
 
Автор
Сообщение

awk05 ®

Пол:

Стаж: 8 лет 4 месяца

Сообщений: 1334

Репутация: 278 [+] [-]

Откуда: Западная Украина Ривне

Пост 31-Окт-2013 05:36

[Цитировать] 

-- --Эврика / Eureka«Small town. Big secret»-- Страна: США / SyFy
Жанр: фантастика, комедия, драма, детектив
Год выпуска: 2006
Сезон/Серия: Сезон:1 / Серия 1-12 из 12
Продолжительность:12 х ~ 00:43:00
Перевод: Профессиональный (многоголосый закадровый)
Озвучка / Автор перевода: СТС
Cубтитры: нет--Режиссер: Майк Рол, Майкл Ланж, Майкл Робисан--В ролях: Колин Фергюсон (Jack Carter), Салли Ричардсон-Уитфилд (Allison Blake), Эрика Серра (Jo Lupo), Нил Грэйстон (Douglas Fargo), Джо Мортон (Henry Deacon), Крис Готье (Vincent), Джордан Хинсон (Zoe Carter), Найолл Мэттер (Zane Donovan), Эд Куинн (Nathan Stark), Дебра Фарентино (Beverly Barlowe), Темби Лок (Grace Monroe), Кристофер Жако (Larry Haberman), Каван Смит (Deputy Andy 2.0), Фелиша Дэй (Holly Marten), и др.--Описание: Поскольку Вторая Мировая Война закончилась уничтожением Хиросимы и Нагасаки, наука и изобретения стали приоритетными во всем мире. Америка чуть не проиграла гонку с атомными бомбами; это не должно повториться.
С помощью Альберта Эйнштейна и других доверенных советников, Президент Гарри С. Труман уполномочил начать заселение удаленной области Тихоокеанского Северо-запада, чтобы сохранить интеллектуальные ценности Америки. Там величайшие умы, вундеркинды, были бы в состоянии жить и работать в благосклонной окружающей среде. Лучшие архитекторы и планировщики были уполномочены построить такое место для этих превосходных гениев, где бы они жили и имели лучшее образование для своих детей, лучшую систему здравоохранения, все для комфортного проживания жизни. Это общество жило бы так же, как все, но с небольшим различием: этот город не обозначен ни на одной карте. О нем никто не знает, кроме Пентагона.
Так появился город Эврика. Но в этом маленьком городе все совсем не так, как в других маленьких городах. Большинство «квантовых прыжков» в науке и технике в течение 50 лет было произведено именно элитными исследователями из Эврики. К сожалению, научные исследования всегда непредсказуемы, и годы экспериментов привели к некоторым побочным явлениям.
От невостребованной любви до профессиональной ревности, от склонности до депрессии, проблемы горожан Эвреки увеличиваются с каждым днем. Но с уникальными талантами населения и безграничными ресурсами, эти провинциальные проблемы могут стать большими проблемами. Именно там, где человеческая непрочность и супернаука сталкиваются, Эврика, начинается…--Качество видео: WEB-DLRip
Формат видео: AVI
Видео кодек: MPEG4, XviD
Аудио кодек: AC-3
Видео: MPEG4, XviD, 720x400 (16:9), 23.976 fps, 1 999 Kbps (0.289 bit/pixel)
Аудио 1: AC-3, 48.0 KHz, 2 ch, 192 Kbps, CBR, 16 bits [Русский]
Аудио 2: AC-3, 48.0 KHz, 2 ch, 192 Kbps, CBR, 16 bits [Английский] -- --

Список серий

01. Пилотная (Pilot)
02. Счастливое возвращение (Many Happy Returns)
03. Пока я не забыл (Before I Forget)
04. Инопланетное вторжение (Alienated)
05. Непобедимый (Invincible)
06. Доктор Нобель (Dr.Nobel)
07. Мерцание (Blink)
08. Правильный как Рэйс (Right as Rayes)
09. Примитивное существо (Primal)
10. Сиреневый туман (Purple Haze)
11. Домашние правила (H.O.U.S.E. Rules)
12. Раз в жизни (Once in a Lifetime)

Тех. данные (MI)

Код:
Видео
Идентификатор                    : 0
Формат                           : MPEG-4 Visual
Профиль формата                  : Advanced Simple@L5
Параметр BVOP формата            : 2
Параметр QPel формата            : Нет
Параметр GMC формата             : Без точки перехода
Параметр матрицы формата         : Default (MPEG)
Режим смешивания                 : Сжатый битовый поток
Идентификатор кодека             : XVID
Идентификатор кодека/Подсказка   : XviD
Продолжительность                : 42 м.
Битрейт                          : 1999 Кбит/сек
Ширина                           : 720 пикс.
Высота                           : 400 пикс.
Соотношение сторон               : 16:9
Частота кадров                   : 23,976 кадр/сек
Цветовое пространство            : YUV
Подвыборка цветности             : 4:2:0
Битовая глубина                  : 8 бит
Тип развёртки                    : Прогрессивная
Метод сжатия                     : С потерями
Бит/(Пиксели*Кадры)              : 0.289
Размер потока                    : 611 Мбайт (83%)
Библиотека кодирования           : XviD 58
Аудио #1
Идентификатор                    : 1
Формат                           : AC-3
Формат/Информация                : Audio Coding 3
Профиль формата                  : Dolby Digital
Расширение режима                : CM (complete main)
Идентификатор кодека             : 2000
Продолжительность                : 42 м.
Вид битрейта                     : Постоянный
Битрейт                          : 192 Кбит/сек
Канал(ы)                         : 2 канала(ов)
Расположение каналов             : Front: L R
Частота                          : 48,0 КГц
Битовая глубина                  : 16 бит
Метод сжатия                     : С потерями
Задержка видео                   : 780 мс.
Размер потока                    : 58,7 Мбайт (8%)
Выравнивание                     : Разделение по промежуткам
Продолжительность промежутка     : 42  мс. (1,00 видеокадр)
Время предзагрузки промежутка    : 500 ms
Аудио #2
Идентификатор                    : 2
Формат                           : AC-3
Формат/Информация                : Audio Coding 3
Расширение режима                : CM (complete main)
Идентификатор кодека             : 2000
Продолжительность                : 42 м.
Вид битрейта                     : Постоянный
Битрейт                          : 192 Кбит/сек
Канал(ы)                         : 2 канала(ов)
Расположение каналов             : Front: L R
Частота                          : 48,0 КГц
Битовая глубина                  : 16 бит
Метод сжатия                     : С потерями
Размер потока                    : 58,7 Мбайт (8%)
Выравнивание                     : Разделение по промежуткам
Продолжительность промежутка     : 42  мс. (1,00 видеокадр)
Время предзагрузки промежутка    : 500 ms

Кадры из фильма

«СЕЗОН 1» «СЕЗОН 2»«СЕЗОН 3» «СЕЗОН 4» «СЕЗОН 5»

_________________
[Торрент-статистика]
[Профиль]  [ЛС] 
Показать сообщения:    
Ответить на тему

Текущее время: Сегодня 07:57

Часовой пояс: GMT + 4



Вы не можете начинать темы
Вы не можете отвечать на сообщения
Вы не можете редактировать свои сообщения
Вы не можете удалять свои сообщения
Вы не можете голосовать в опросах
Вы не можете прикреплять файлы к сообщениям
Вы не можете скачивать файлы