Числа / Numb3rs / Сезон: 6 (6)/ Серии: 1-16 (16) (Деннис Смит, Алекс Закржевский, Джон Беринг) [2009-2010, Детектив,Боевик, Драма, WEB-DLRip] (Universal Channel Russia)

Ответить на тему
 
Автор
Сообщение

awk05 ®

Пол:

Стаж: 8 лет 5 месяцев

Сообщений: 1334

Репутация: 278 [+] [-]

Откуда: Западная Украина Ривне

Пост 28-Дек-2013 22:40

[Цитировать] 

--Числа/Numb3rs-- Год выпуска: 2009-2010
Жанр: Детектив,Боевик, Драма
Сезон/Серия: Сезон:6 /Серия 1-16 из 16
Продолжительность: 16 x 00:44:11
Перевод: Профессиональный (многоголосый, закадровый) (Universal Channel Russia)+ Original
Авторы идеи: Cheryl Heuton, Nicolas Falacci
Субтитры: отсутствуют--Режиссёр: Деннис Смит, Алекс Закржевский, Джон Беринг--В ролях: Дэвид Крумхольц, Роб Морроу, Джадд Хирш, Алими Баллард, Нави Рават, Питер Макникол, Дилан Бруно, Дайан Фарр, Ая Сумика, Софина Брау--Описание: Действие разворачивается в Лос-Анджелесе. В центре сюжета — агент ФБР Дон Эппс и его брат, гениальный математик Чарли. Обычно серия начинается с преступления, которое расследует команда агентов ФБР под руководством Дона. Затем к делу подключается Чарли, с помощью новейших математических методов помогающий вычислить преступника. Начало каждой серии сопровождается словами:
Каждый день мы используем числа, чтобы прогнозировать погоду, определять время, считать деньги… С помощью математики мы можем анализировать преступления, выявлять закономерности, предсказывать поведение… Используя числа, мы можем решить величайшие загадки.--Качество: WEB-DLRip
Формат: AVI
Видео кодек: XviD
Аудио кодек: MP3
Видео: 656x368 (16х9), 23.976 fps, 1 110 Kbps (0.192 bit/pixel)
Аудио (rus): 48.0 KHz, 2 ch, 128 Kbps
Аудио 2 (eng): 48.0 KHz, 2 ch, 128 Kbps-- --

MediaInfo

General
Complete name : E:\Сериалы новые\Numb3rs.Season 6 (Universal Channel Russia)\Numb3rs.s06e01.rus.eng.web-dlrip.avi
Format : AVI
Format/Info : Audio Video Interleave
File size : 453 MiB
Duration : 44mn 11s
Overall bit rate : 1 434 Kbps
Writing application : VirtualDubMod 1.5.10.2 (build 2540/release)
Writing library : VirtualDubMod build 2540/release
Video
ID : 0
Format : MPEG-4 Visual
Format profile : Advanced Simple@L5
Format settings, BVOP : 1
Format settings, QPel : No
Format settings, GMC : No warppoints
Format settings, Matrix : Default (MPEG)
Codec ID : XVID
Codec ID/Hint : XviD
Duration : 44mn 11s
Bit rate : 1 110 Kbps
Width : 656 pixels
Height : 368 pixels
Display aspect ratio : 16:9
Frame rate : 23.976 fps
Color space : YUV
Chroma subsampling : 4:2:0
Bit depth : 8 bits
Scan type : Progressive
Compression mode : Lossy
Bits/(Pixel*Frame) : 0.192
Stream size : 351 MiB (77%)
Writing library : XviD 1.2.1 (UTC 2008-12-04)
Audio #1
ID : 1
Format : MPEG Audio
Format version : Version 1
Format profile : Layer 3
Codec ID : 55
Codec ID/Hint : MP3
Duration : 44mn 11s
Bit rate mode : Constant
Bit rate : 128 Kbps
Channel count : 2 channels
Sampling rate : 48.0 KHz
Compression mode : Lossy
Stream size : 40.5 MiB (9%)
Alignment : Aligned on interleaves
Writing library : LAME3.98r
Encoding settings : -m s -V 4 -q 2 -lowpass 17 -b 128
Audio #2
ID : 2
Format : MPEG Audio
Format version : Version 1
Format profile : Layer 3
Codec ID : 55
Codec ID/Hint : MP3
Duration : 44mn 11s
Bit rate mode : Constant
Bit rate : 128 Kbps
Channel count : 2 channels
Sampling rate : 48.0 KHz
Compression mode : Lossy
Stream size : 40.5 MiB (9%)
Alignment : Aligned on interleaves
Writing library : LAME3.98r
Encoding settings : -m s -V 4 -q 2 -lowpass 17 -b 128
«СЕЗОН 1» «СЕЗОН 2» «СЕЗОН 3 / 1-22 серии» «СЕЗОН 3 / 23-24 серии»«СЕЗОН 4» «СЕЗОН 5» «СЕЗОН 6»

_________________
[Торрент-статистика]
[Профиль]  [ЛС] 
Показать сообщения:    
Ответить на тему

Текущее время: Сегодня 09:46

Часовой пояс: GMT + 4



Вы не можете начинать темы
Вы не можете отвечать на сообщения
Вы не можете редактировать свои сообщения
Вы не можете удалять свои сообщения
Вы не можете голосовать в опросах
Вы не можете прикреплять файлы к сообщениям
Вы не можете скачивать файлы