Числа / Numb3rs / Сезон 4 (6)/Серии 1-18 (18) (Николас Фалацци / Nicolas Falacci) [2007 - 2008 гг., Детектив,Боевик, Драма, DVDRip](Universal Channel Russia)

Ответить на тему
 
Автор
Сообщение

awk05 ®

Пол:

Стаж: 8 лет 5 месяцев

Сообщений: 1334

Репутация: 278 [+] [-]

Откуда: Западная Украина Ривне

Пост 28-Дек-2013 21:36

[Цитировать] 

--Числа/Numb3rs-- Год выпуска: 2007-2008
Жанр: Детектив,Боевик, Драма
Сезон/Серия: Сезон:4 /Серия 1-18 из 18
Продолжительность: 18 x 00:45:00
Перевод: Профессиональный (многоголосый, закадровый) (Universal Channel Russia)+ Original
Субтитры: отсутствуют--Режиссёр: Николас Фалацци / Nicolas Falacci--В ролях: Дэвид Крумхольц, Роб Морроу, Джадд Хирш, Алими Баллард, Нави Рават, Питер Макникол, Дилан Бруно, Дайан Фарр, Ая Сумика, Софина Брау--Описание: Действие разворачивается в Лос-Анджелесе. В центре сюжета — агент ФБР Дон Эппс и его брат, гениальный математик Чарли. Обычно серия начинается с преступления, которое расследует команда агентов ФБР под руководством Дона. Затем к делу подключается Чарли, с помощью новейших математических методов помогающий вычислить преступника. Начало каждой серии сопровождается словами:
Каждый день мы используем числа, чтобы прогнозировать погоду, определять время, считать деньги… С помощью математики мы можем анализировать преступления, выявлять закономерности, предсказывать поведение… Используя числа, мы можем решить величайшие загадки.--Качество: DVDRip
Формат: AVI
Видео кодек: XviD
Аудио кодек: MP3
Видео: 624x352 (1.77:1), 23.976 fps, XviD MPEG-4 ~982 kbps avg, 0.19 bit/pixel
Аудио Rus: 48 kHz, MPEG Layer 3, 2 ch, ~128.00 kbps avg
Аудио Eng: 48 kHz, MPEG Layer 3, 2 ch, ~128.00 kbps avg-- --

MediaInfo

General
Complete name : E:\Сериалы новые\Numb3rs Season 4 UCR\Numb3rs.s04e01.rus.eng.dvdrip_filmgate.tv.avi
Format : AVI
Format/Info : Audio Video Interleave
File size : 390 MiB
Duration : 43mn 20s
Overall bit rate mode : Variable
Overall bit rate : 1 257 Kbps
Writing application : VirtualDubModRus 1.5.10.2 (build 2542/release)
Writing library : VirtualDubMod build 2542/release
Video
ID : 0
Format : MPEG-4 Visual
Format profile : Advanced Simple@L5
Format settings, BVOP : 2
Format settings, QPel : No
Format settings, GMC : No warppoints
Format settings, Matrix : Default (H.263)
Muxing mode : Packed bitstream
Codec ID : XVID
Codec ID/Hint : XviD
Duration : 43mn 20s
Bit rate : 982 Kbps
Width : 624 pixels
Height : 352 pixels
Display aspect ratio : 16:9
Frame rate : 23.976 fps
Color space : YUV
Chroma subsampling : 4:2:0
Bit depth : 8 bits
Scan type : Progressive
Compression mode : Lossy
Bits/(Pixel*Frame) : 0.186
Stream size : 304 MiB (78%)
Writing library : XviD 1.1.2 (UTC 2006-11-01)
Audio #1
ID : 1
Format : MPEG Audio
Format version : Version 1
Format profile : Layer 3
Mode : Joint stereo
Mode extension : MS Stereo
Codec ID : 55
Codec ID/Hint : MP3
Duration : 43mn 20s
Bit rate mode : Constant
Bit rate : 128 Kbps
Channel count : 2 channels
Sampling rate : 48.0 KHz
Compression mode : Lossy
Stream size : 39.7 MiB (10%)
Alignment : Aligned on interleaves
Interleave, duration : 42 ms (1.00 video frame)
Interleave, preload duration : 504 ms
Audio #2
ID : 2
Format : MPEG Audio
Format version : Version 1
Format profile : Layer 3
Mode : Joint stereo
Mode extension : MS Stereo
Codec ID : 55
Codec ID/Hint : MP3
Duration : 43mn 20s
Bit rate mode : Variable
Bit rate : 128 Kbps
Channel count : 2 channels
Sampling rate : 48.0 KHz
Compression mode : Lossy
Stream size : 40.3 MiB (10%)
Alignment : Aligned on interleaves
Interleave, duration : 24 ms (0.58 video frame)
Interleave, preload duration : 224 ms
Writing library : LAME3.90.
Encoding settings : -m j -V 4 -q 2 -lowpass 17.6 --abr 128
«СЕЗОН 1» «СЕЗОН 2» «СЕЗОН 3 / 1-22 серии» «СЕЗОН 3 / 23-24 серии» «СЕЗОН 4» «СЕЗОН 5» «СЕЗОН 6»

_________________
[Торрент-статистика]
[Профиль]  [ЛС] 
Показать сообщения:    
Ответить на тему

Текущее время: Сегодня 13:39

Часовой пояс: GMT + 4



Вы не можете начинать темы
Вы не можете отвечать на сообщения
Вы не можете редактировать свои сообщения
Вы не можете удалять свои сообщения
Вы не можете голосовать в опросах
Вы не можете прикреплять файлы к сообщениям
Вы не можете скачивать файлы