Числа / Numb3rs / Сезон: 2 (6)/ Серии: 1-24 (24) (Дэннис Смит / Dennis Smith) [2005-2006 г., Детектив,Боевик, Драма DVDRip] NovaFilm

Ответить на тему
 
Автор
Сообщение

awk05 ®

Пол:

Стаж: 8 лет 5 месяцев

Сообщений: 1334

Репутация: 278 [+] [-]

Откуда: Западная Украина Ривне

Пост 28-Дек-2013 21:10

[Цитировать] 

--Числа/Numb3rs-- Год выпуска: 2006
Жанр: Детектив,Боевик, Драма
Сезон/Серия: Сезон:2 /Серия 1-24 из 24
Продолжительность: 24 x 00:45:00
Перевод: Профессиональный (многоголосый, закадровый)
Авторы идеи: Cheryl Heuton, Nicolas Falacci
Субтитры: отсутствуют--Режиссёр: Деннис Смит, Алекс Закржевский, Джон Беринг--В ролях: Дэвид Крумхольц, Роб Морроу, Джадд Хирш, Алими Баллард, Нави Рават, Питер Макникол, Дилан Бруно, Дайан Фарр, Ая Сумика, Софина Брау--Описание: Действие разворачивается в Лос-Анджелесе. В центре сюжета — агент ФБР Дон Эппс и его брат, гениальный математик Чарли. Обычно серия начинается с преступления, которое расследует команда агентов ФБР под руководством Дона. Затем к делу подключается Чарли, с помощью новейших математических методов помогающий вычислить преступника. Начало каждой серии сопровождается словами:
Каждый день мы используем числа, чтобы прогнозировать погоду, определять время, считать деньги… С помощью математики мы можем анализировать преступления, выявлять закономерности, предсказывать поведение… Используя числа, мы можем решить величайшие загадки.--Качество: DVDRip
Формат: AVI
Видео кодек: XVID
Аудио кодек: MP3
Видео: 624x352, 1 090 Mbps, 16:9, 23.976 fps, 0.207 bit/pixel
Аудио: 48 kHz, MPEG Layer 3, 2 ch, 160 Kbps avg-- --

MediaInfo

General
Complete name : E:\Сериалы новые\Numb3rs-2\numb3rs.s02e01.avi
Format : AVI
Format/Info : Audio Video Interleave
File size : 360 MiB
Duration : 43mn 14s
Overall bit rate : 1 163 Kbps
Writing application : VirtualDubMod 1.5.10.2 (build 2542/release)
Writing library : VirtualDubMod build 2542/release
Video
ID : 0
Format : MPEG-4 Visual
Codec ID : XVID
Codec ID/Hint : XviD
Duration : 43mn 14s
Source duration : 4mn 45s
Bit rate : 1 090 Mbps
Width : 624 pixels
Height : 352 pixels
Display aspect ratio : 16:9
Frame rate : 23.976 fps
Color space : YUV
Chroma subsampling : 4:2:0
Compression mode : Lossy
Bits/(Pixel*Frame) : 207.051
Stream size : 36.2 GiB
Audio
ID : 1
Format : MPEG Audio
Codec ID : 55
Codec ID/Hint : MP3
Duration : 43mn 14s
Bit rate : 160 Kbps
Channel count : 2 channels
Sampling rate : 48.0 KHz
Compression mode : Lossy
Stream size : 44.0 GiB
Alignment : Aligned on interleaves
Interleave, duration : 42 ms (1.00 video frame)
Interleave, preload duration : 504 ms
«СЕЗОН 1» «СЕЗОН 2» «СЕЗОН 3 / 1-22 серии» «СЕЗОН 3 / 23-24 серии»«СЕЗОН 4» «СЕЗОН 5» «СЕЗОН 6»

_________________
[Торрент-статистика]
[Профиль]  [ЛС] 
Показать сообщения:    
Ответить на тему

Текущее время: Сегодня 10:20

Часовой пояс: GMT + 4



Вы не можете начинать темы
Вы не можете отвечать на сообщения
Вы не можете редактировать свои сообщения
Вы не можете удалять свои сообщения
Вы не можете голосовать в опросах
Вы не можете прикреплять файлы к сообщениям
Вы не можете скачивать файлы