Числа / Numb3rs / Сезон: 1 (6)/ Серии 1-13 (13) (Дэннис Смит / Dennis Smith и др.) [2005 г., Детектив,Боевик, Драма, DVDRip] Novafilm

Ответить на тему
 
Автор
Сообщение

awk05 ®

Пол:

Стаж: 8 лет 5 месяцев

Сообщений: 1334

Репутация: 278 [+] [-]

Откуда: Западная Украина Ривне

Пост 28-Дек-2013 20:52

[Цитировать] 

--Числа/Numb3rs-- Год выпуска: 2005
Жанр: Детектив,Боевик, Драма
Сезон/Серия: Сезон:1 /Серия 1-13 из 13
Продолжительность: 13 x 00:45:00
Перевод: Профессиональный (многоголосый, закадровый)
Авторы идеи: Cheryl Heuton, Nicolas Falacci
Субтитры: отсутствуют--Режиссёр: Деннис Смит, Алекс Закржевский, Джон Беринг--В ролях: Дэвид Крумхольц, Роб Морроу, Джадд Хирш, Алими Баллард, Нави Рават, Питер Макникол, Дилан Бруно, Дайан Фарр, Ая Сумика, Софина Брау--Описание: Действие разворачивается в Лос-Анджелесе. В центре сюжета — агент ФБР Дон Эппс и его брат, гениальный математик Чарли. Обычно серия начинается с преступления, которое расследует команда агентов ФБР под руководством Дона. Затем к делу подключается Чарли, с помощью новейших математических методов помогающий вычислить преступника. Начало каждой серии сопровождается словами:
Каждый день мы используем числа, чтобы прогнозировать погоду, определять время, считать деньги… С помощью математики мы можем анализировать преступления, выявлять закономерности, предсказывать поведение… Используя числа, мы можем решить величайшие загадки.--Качество: DVDRip
Формат: AVI
Видео кодек: DIVX
Аудио кодек: MP3
Видео: 624x352, ~972 kbps avg, 16:9, 23.976 fps, 0.184 bit/pixel
Аудио: 48 kHz, MPEG Layer 3, 2 ch, 192 kbps avg-- --

Скриншоты

MediaInfo

General
Complete name : E:\Сериалы новые\Numb3rs\numb3rs.s01e01.avi
Format : AVI
Format/Info : Audio Video Interleave
File size : 359 MiB
Duration : 42mn 47s
Overall bit rate : 1 171 Kbps
Writing application : VirtualDubMod 1.5.10.2 (build 2540/release)
Writing library : VirtualDubMod build 2540/release
Video
ID : 0
Format : MPEG-4 Visual
Format profile : Advanced Simple@L5
Format settings, BVOP : 2
Format settings, QPel : No
Format settings, GMC : No warppoints
Format settings, Matrix : Default (H.263)
Muxing mode : Packed bitstream
Codec ID : DIVX
Codec ID/Info : Project Mayo
Codec ID/Hint : DivX 4
Duration : 42mn 47s
Bit rate : 972 Kbps
Width : 624 pixels
Height : 352 pixels
Display aspect ratio : 16:9
Frame rate : 23.976 fps
Color space : YUV
Chroma subsampling : 4:2:0
Bit depth : 8 bits
Scan type : Progressive
Compression mode : Lossy
Bits/(Pixel*Frame) : 0.184
Stream size : 297 MiB (83%)
Writing library : XviD 1.0.2 (UTC 2004-08-29)
Audio
ID : 1
Format : MPEG Audio
Format version : Version 1
Format profile : Layer 3
Mode : Joint stereo
Mode extension : MS Stereo
Codec ID : 55
Codec ID/Hint : MP3
Duration : 42mn 47s
Bit rate mode : Constant
Bit rate : 192 Kbps
Channel count : 2 channels
Sampling rate : 48.0 KHz
Compression mode : Lossy
Stream size : 58.8 MiB (16%)
Alignment : Split accross interleaves
Interleave, duration : 64 ms (1.53 video frames)
«СЕЗОН 1» «СЕЗОН 2» «СЕЗОН 3 / 1-22 серии» «СЕЗОН 3 / 23-24 серии»«СЕЗОН 4» «СЕЗОН 5» «СЕЗОН 6»

_________________
[Торрент-статистика]
[Профиль]  [ЛС] 
Показать сообщения:    
Ответить на тему

Текущее время: Сегодня 21:13

Часовой пояс: GMT + 4



Вы не можете начинать темы
Вы не можете отвечать на сообщения
Вы не можете редактировать свои сообщения
Вы не можете удалять свои сообщения
Вы не можете голосовать в опросах
Вы не можете прикреплять файлы к сообщениям
Вы не можете скачивать файлы