В августе 44-го (Михаил Пташук) [2001 г., боевик, триллер, драма, детектив, военный, DVD5]

Ответить на тему
 
Автор
Сообщение

ArtZak ®

Пол:

Стаж: 5 лет 1 месяц

Сообщений: 3008

Репутация: 1363 [+] [-]

Откуда: Россия

Пост 21-Май-2013 22:26

[Цитировать] 

В августе 44-го
Год выпуска: 2001
Страна: Россия, Беларусь
Жанр: боевик, триллер, драма, детектив, военный
Продолжительность: 01:43:46
Режиссер: Михаил Пташук- -В ролях:
Евгений Миронов, Владислав Галкин, Юрий Колокольников, Беата Тышкевич, Алексей Петренко, Александр Феклистов, Рамаз Чхиквадзе, Александр Балуев, Ярослав Бойко, Анджей Печиньский и др.
Описание:
Лето 1944. До Великой Победы остается еще около года. Белоруссия уже освобождена, однако с ее территории регулярно выходит в эфир группа лазутчиков, передавая врагам очень важную информацию о советских войсках. На поиски шпионов, в район регулярных выходов в эфир запеленгованной рации, был послан отряд разведчиков, во главе с офицером СМЕРШа.
Тип релиза: DVD5
Контейнер: DVD Video
Видео кодек: MPEG2
Аудио кодек: AC3 (Dolby Digital)
Видео: MPEG 2, 720x576 (16:9), 25.000 fps, 9 000 Kbps (0.531 bit/pixel)
Аудио: AC-3, 48.0 KHz, 2 ch, 192 Kbps, CBR

Скринноты меню:

Скриншоты:

DVDInfo

Title: V_Avguste_44
Size: 4.21 Gb ( 4 415 200,00 KBytes ) - DVD-5
Enabled regions: 1, 2, 3, 4, 5, 6, 7, 8
VTS_01 :
Play Length: 01:43:46
Video: PAL 16:9 (720x576) VBR, Auto Letterboxed
Audio:
Russian (Dolby AC3, 2 ch)
* Menus Information *
VIDEO_TS Menu
Video:
NTSC 4:3 (720x480) VBR
Auto Pan&Scan, Auto Letterboxed
Russian Language Unit :
Title Menu
VTS_01 Menu
Video:
PAL 16:9 (720x576) VBR
Auto Letterboxed
Audio:
Not specified (Dolby AC3, 2 ch)
Russian Language Unit :
Root Menu
Chapter (PTT) Menu

MI

General
Complete name : D:\downloads\ildar\V_Avguste_44\VTS_01_1.VOB
Format : MPEG-PS
File size : 1 024 MiB
Duration : 24mn 38s
Overall bit rate mode : Variable
Overall bit rate : 5 809 Kbps
Writing library : (c) 1998-2005 Womble Multimedia, Inc. / MPEG Video Wizard (09/2005) / Mar 2 2006
Video
ID : 224 (0xE0)
Format : MPEG Video
Format version : Version 2
Format profile : Main@Main
Format settings, BVOP : Yes
Format settings, Matrix : Default
Format settings, GOP : M=3, N=12
Duration : 24mn 38s
Bit rate mode : Variable
Bit rate : 5 501 Kbps
Maximum bit rate : 9 000 Kbps
Width : 720 pixels
Height : 576 pixels
Display aspect ratio : 16:9
Frame rate : 25.000 fps
Standard : PAL
Color space : YUV
Chroma subsampling : 4:2:0
Bit depth : 8 bits
Scan type : Interlaced
Scan order : Bottom Field First
Compression mode : Lossy
Bits/(Pixel*Frame) : 0.531
Time code of first frame : 00:00:00:00
Time code source : Group of pictures header
Stream size : 969 MiB (95%)
Writing library : (c) 1998-2005 Womble Multimedia, Inc. / MPEG Video Wizard (09/2005) / Mar 2 2006
Audio
ID : 189 (0xBD)-128 (0x80)
Format : AC-3
Format/Info : Audio Coding 3
Mode extension : CM (complete main)
Format settings, Endianness : Big
Muxing mode : DVD-Video
Duration : 24mn 38s
Bit rate mode : Constant
Bit rate : 192 Kbps
Channel(s) : 2 channels
Channel positions : Front: L R
Sampling rate : 48.0 KHz
Bit depth : 16 bits
Compression mode : Lossy
Stream size : 33.8 MiB (3%)
Menu
[Торрент-статистика]
[Профиль]  [ЛС] 
Показать сообщения:    
Ответить на тему

Текущее время: Сегодня 14:47

Часовой пояс: GMT + 4



Вы не можете начинать темы
Вы не можете отвечать на сообщения
Вы не можете редактировать свои сообщения
Вы не можете удалять свои сообщения
Вы не можете голосовать в опросах
Вы не можете прикреплять файлы к сообщениям
Вы не можете скачивать файлы