Большая ржака! (Виталий Москаленко) [2012, Россия, комедия, DVD9] R5

Ответить на тему
 
Автор
Сообщение

ArtZak ®

Пол:

Стаж: 5 лет 1 месяц

Сообщений: 3008

Репутация: 1363 [+] [-]

Откуда: Россия

Пост 26-Авг-2012 00:16

[Цитировать] 

Большая ржака!
«Это больше чем комедия! Это - «Большая Ржака»!»
Год выпуска: 2012
Страна: Россия
Жанр: Комедия
Продолжительность: 01:20:10
Режиссер: Виталий Москаленко- -В ролях: Анна Семенович, Григорий Сиятвинда, Сергей Писаренко, Евгений Никишин, Ирина Медведева, Сергей Дорогов, Андрей Кайков, Светлана Пермякова, Виктор Добронравов, Евгений Косырев, Александр Семчев, Любовь Толкалина, Александр Робак, Владимир Симонов, Александра Флоринская, Владимир Зайцев, Максим Коновалов, Ольга Волкова, Алёна Ивченко, Алёна Яковлева, Настя Добрынина, Владимир Мошков, Ирина Веришко, Константин Раце
Описание: В провинциальном городке на местном ТВ прозябают два друга - Ширяев и Молоток - и их коллега, красавица Надя. Все трое мечтают разбогатеть и стать столичными "звездами". Неожиданно им в голову приходит идея: устроить реалити-шоу, участники которого должны отыскать золото Колчака. Одержимые жадностью герои шоу пускаются в гонку за кладом на самолетах, поездах и автомобилях. В пути их ждут сумасшедшие приключения, и все они еще не знают главного секрета…
Сэмпл: http://multi-up.com/750993

Тип релиза: DVD9
Контейнер: DVD-Video
Видео: MPEG-2, PAL 16:9 (720x576), 6000 Кбит/с (VBR), 25 кадр/с
Аудио #1: Русский, Dolby AC3 384 Кбит/с, 48000 Гц, 6 каналов (5.1)
Аудио #2: Русский, Dolby AC3 192 Кбит/с, 48000 Гц, 2 канала (Стерео)

DVDInfo

Title: Bolshaya.rzhaka.2012.O.DVD9.IRONCLUB
Size: 6.38 Gb ( 6 685 190 KBytes ) - DVD-9
Enabled regions: 1, 2, 3, 4, 5, 6, 7, 8
VTS_01 :
Play Length: 00:00:01+01:20:10
Video: PAL 16:9 (720x576) VBR, Auto Letterboxed
Audio:
Russian (Dolby AC3, 6 ch)
Russian (Dolby AC3, 2 ch)
VTS_02 :
Play Length: 00:00:01+00:00:11
Video: PAL 16:9 (720x576) VBR, Auto Letterboxed
Audio:
Russian (Dolby AC3, 2 ch)
VTS_03 :
Play Length: 00:00:01+00:00:17
Video: PAL 16:9 (720x576) VBR, Auto Letterboxed
Audio:
Russian (Dolby AC3, 2 ch)
VTS_04 :
Play Length: 00:00:01+00:22:18
Video: PAL 16:9 (720x576) VBR, Auto Letterboxed
Audio:
Russian (Dolby AC3, 2 ch)
Menu Video:
NTSC 4:3 (720x480) VBR
Auto Pan&Scan, Auto Letterboxed
Menu Russian Language Unit :
Root Menu
Angle menu

MediaInfo

General
Complete name : Bolshaya.rzhaka.2012.O.DVD9.IRONCLUBVIDEO_TSVTS_01_1.VOB
Format : MPEG-PS
File size : 1 024 MiB
Duration : 15mn 29s
Overall bit rate : 9 242 Kbps
Video
ID : 224 (0xE0)
Format : MPEG Video
Format version : Version 2
Format profile : Main@Main
Format settings, BVOP : Yes
Format settings, Matrix : Custom
Duration : 15mn 29s
Bit rate mode : Constant
Bit rate : 8 482 Kbps
Nominal bit rate : 6 000 Kbps
Width : 720 pixels
Height : 576 pixels
Display aspect ratio : 16:9
Frame rate : 25.000 fps
Standard : PAL
Color space : YUV
Chroma subsampling : 4:2:0
Bit depth : 8 bits
Scan type : Interlaced
Scan order : Bottom Field First
Compression mode : Lossy
Bits/(Pixel*Frame) : 0.818
Stream size : 940 MiB (92%)
Audio #1
ID : 189 (0xBD)-128 (0x80)
Format : AC-3
Format/Info : Audio Coding 3
Mode extension : CM (complete main)
Muxing mode : DVD-Video
Duration : 15mn 29s
Bit rate mode : Constant
Bit rate : 384 Kbps
Channel(s) : 6 channels
Channel positions : Front: L C R, Side: L R, LFE
Sampling rate : 48.0 KHz
Bit depth : 16 bits
Compression mode : Lossy
Stream size : 42.5 MiB (4%)
Audio #2
ID : 189 (0xBD)-129 (0x81)
Format : AC-3
Format/Info : Audio Coding 3
Mode extension : CM (complete main)
Muxing mode : DVD-Video
Duration : 15mn 29s
Bit rate mode : Constant
Bit rate : 192 Kbps
Channel(s) : 2 channels
Channel positions : Front: L R
Sampling rate : 48.0 KHz
Bit depth : 16 bits
Compression mode : Lossy
Stream size : 21.3 MiB (2%)

Скриншоты меню

Скриншоты

[Торрент-статистика]
[Профиль]  [ЛС] 
Показать сообщения:    
Ответить на тему

Текущее время: Сегодня 00:20

Часовой пояс: GMT + 4



Вы не можете начинать темы
Вы не можете отвечать на сообщения
Вы не можете редактировать свои сообщения
Вы не можете удалять свои сообщения
Вы не можете голосовать в опросах
Вы не можете прикреплять файлы к сообщениям
Вы не можете скачивать файлы