Ржевский против Наполеона (Марюс Вайсберг) [2011, Россия, Украина, комедия, DVD9] R5 «Новый Диск»

Ответить на тему
 
Автор
Сообщение

diim ®

Пол:

Стаж: 1 год 10 месяцев

Сообщений: 1033

Репутация: 112 [+] [-]

Пост 24-Фев-2012 10:51

[Цитировать] 

Ржевский против Наполеона-Год выпуска: 2011
Страна: Россия, Украина (Квартал-95, Леополис)
Слоган: «В старом добром IIIД»
Жанр: комедия
Продолжительность: 01:19:44
Перевод: Не требуется
Субтитры: Нет--Режиссёр: Марюс Вайсберг
Сценарист: Андрей Яковлев, Михаил Савин, Владимир Зеленский
Продюсер: Сергей Ливнев, Владимир Зеленский, Сергей Шефир
Оператор: Ирек Хартович
Композитор: Владимир Сайко-В ролях: Павел Деревянко, Владимир Зеленский, Светлана Ходченкова, Михаил Ефремов, Марат Башаров, Евгений Кошевой, Жан-Клод Ван Дамм, Анна Семенович, Анфиса Чехова, Михаил Галустян--Описание: Чтобы развеять скуку, Наполеон Бонапарт затеял мировую войну. Не пропуская ни одной юбки, он оказывается со своей армией у ворот Первопрестольной. Русские полководцы решают внедрить к нему неприступную красавицу, la femme fatal, чтобы отвлечь узурпатора от захватнической деятельности. Только какая настоящая женщина устоит перед обаянием этого великого бабника? Ненастоящая!!! В смысле — переодетый мужчина! И такой мужчина есть — поручик Ржевский…--Доп.информация: Анонсы-Мировая премьера: 18 января 2012
Премьера в России: 25 января 2012, «Централ Партнершип» 3D
Бюджет: $8 500 000
Кассовые сборы: $7 691 040-- -Качество: DVD9 R5
Формат: DVD Video
Видео кодек: MPEG2
Аудио кодек: AC3 (Dolby Digital)
Видео: PAL 16:9 (720x576(0.659)) MPEG Video, 25,000 кадр/сек, 6836 Кбит/сек
Аудио #1: Russian (Dolby AC3, 6 ch) 448 Кбит/сек, 48,0 КГц [Не требуется]
Субтитры: Нет-

DVDInfo

Title:
Size: 5.12 Gb ( 5 369 544 KBytes ) - DVD-9
Enabled regions: 1, 2, 3, 4, 5, 6, 7, 8
VTS_01 :
Play Length: 00:00:15
Video: PAL 4:3 (720x576) VBR
Audio:
Not specified (Dolby AC3, 2 ch)
VTS_02 :
Play Length: 00:00:08
Video: PAL 16:9 (720x576) VBR, Auto Pan&Scan
Audio:
Not specified (Dolby AC3, 2 ch)
VTS_03 :
Play Length: 00:01:19
Video: PAL 16:9 (720x576) VBR, Auto Pan&Scan
Audio:
Not specified (Dolby AC3, 2 ch)
VTS_04 :
Play Length: 00:02:00
Video: PAL 16:9 (720x576) VBR, Auto Pan&Scan
Audio:
Not specified (Dolby AC3, 2 ch)
VTS_05 :
Play Length: 00:00:15
Video: PAL 16:9 (720x576) VBR, Auto Pan&Scan
Audio:
Not specified (Dolby AC3, 6 ch)
Not specified (Dolby AC3, 6 ch)
VTS_06 :
Play Length: 01:19:44
Video: PAL 16:9 (720x576) VBR, Auto Pan&Scan
Audio:
Russian (Dolby AC3, 6 ch)
VTS_07 :
Play Length: 00:01:34
Video: PAL 16:9 (720x576) VBR, Auto Pan&Scan
Audio:
Not specified (Dolby AC3, 2 ch)
VTS_08 :
Play Length: 00:01:19
Video: PAL 16:9 (720x576) VBR, Auto Pan&Scan
Audio:
Not specified (Dolby AC3, 2 ch)
VTS_09 :
Play Length: 00:01:57
Video: PAL 16:9 (720x576) VBR, Auto Pan&Scan
Audio:
Not specified (Dolby AC3, 2 ch)
Subtitles:
Not specified
VTS_10 :
Play Length: 00:02:19
Video: PAL 16:9 (720x576) VBR, Auto Pan&Scan
Audio:
Not specified (Dolby AC3, 2 ch)
VTS_11 :
Play Length: 00:02:24
Video: PAL 16:9 (720x576) VBR, Auto Pan&Scan
Audio:
Not specified (Dolby AC3, 2 ch)
VTS_12 :
Play Length: 00:01:51
Video: PAL 16:9 (720x576) VBR, Auto Pan&Scan
Audio:
Not specified (Dolby AC3, 2 ch)
VTS_13 :
Play Length: 00:01:56
Video: PAL 16:9 (720x576) VBR, Auto Pan&Scan
Audio:
Not specified (Dolby AC3, 2 ch)
VTS_14 :
Play Length: 00:01:31
Video: PAL 16:9 (720x576) VBR, Auto Pan&Scan
Audio:
Not specified (Dolby AC3, 2 ch)
VTS_15 :
Play Length: 00:01:50
Video: PAL 16:9 (720x576) VBR, Auto Pan&Scan
Audio:
Not specified (Dolby AC3, 2 ch)
Menu Video:
PAL 16:9 (720x576) VBR
Auto Letterboxed
Menu English Language Unit :
Root Menu
Chapter (PTT) Menu

MediaInfo

Общее
Полное имя : G:\Новинки 2012\Rzhevskij.protiv.Napoleona.2012.DVD9\VIDEO_TS\VTS_06_1.VOB
Формат : MPEG-PS
Размер файла : 1024 Мбайт
Продолжительность : 19 м.
Режим общего битрейта : Переменный
Общий поток : 7431 Кбит/сек
Видео
Идентификатор : 224 (0xE0)
Формат : MPEG Video
Версия формата : Version 2
Профиль формата : Main@Main
Параметр BVOP формата : Да
Параметр матрицы формата : По умолчанию
Параметр GOP формата : M=3, N=12
Продолжительность : 19 м.
Вид битрейта : Переменный
Битрейт : 6836 Кбит/сек
Максимальный битрейт : 7800 Кбит/сек
Ширина : 720 пикселей
Высота : 576 пикселей
Соотношение сторон : 16:9
Частота кадров : 25,000 кадров/сек
Стандарт вещания : PAL
Цветовое пространство : YUV
Субдискретизация насыщенности : 4:2:0
Битовая глубина : 8 бит
Тип развёртки : Прогрессивная
Метод сжатия : С потерями
Бит/(Пиксели*Кадры) : 0.659
Размер потока : 942 Мбайт (92%)
Аудио
Идентификатор : 189 (0xBD)-128 (0x80)
Формат : AC-3
Формат/Информация : Audio Coding 3
Расширение режима : CM (complete main)
Режим смешивания : DVD-Video
Продолжительность : 19 м.
Вид битрейта : Постоянный
Битрейт : 448 Кбит/сек
Каналы : 6 каналов
Расположение каналов : Front: L C R, Side: L R, LFE
Частота : 48,0 КГц
Битовая глубина : 16 бит
Метод сжатия : С потерями
Размер потока : 61,7 Мбайт (6%)

Знаете ли Вы, что...

Фильм снимался в Украине с августа по октябрь 2010 года.
Съемочная группа работала на уникальных объектах: в кадре можно увидеть интерьеры и окрестности Воронцовского, Ливадийского и Александровского дворцов, а также театра «Сузирья», завода «Ленинская кузня» и Дома с химерами - официальной резиденции Президента Украины.
Москву 1812 года «изображала» Киево-Печерская лавра.
В ходе съемок было задействовано 17 различных локаций.
Сцены с Жан-Клодом Ван Даммом снимались ночью.
На проекте работало 12 костюмеров, а костюмы шили в 6 киевских частных дизайнерских ателье (украинские модельеры работали под надзором художника по костюмам Анастасии Нефедовой).
Обувь Наполеона также шилась на заказ в дизайнерских мастерских Киева. Голенища сапог украшены вышивкой, а подошвы оставляют на земле «говорящие» следы - NN.
Один из костюмов Наполеона состоит из 18-ти предметов одежды и аксессуаров, начиная от головного убора и заканчивая чулками и перевязью.
Эполеты экранного Наполеона – подлинное произведение ювелирного искусства: они выполнены из золотых цепей и витого золота.
Для фильма была модернизирована монограмма Наполеона: историческую монограмму преобразили, учитывая современные «тенденции».
Сапоги поручика Ржевского украшают необычные шпоры: вместо классических колесиков на них крепятся черепа со стразами. Всего для героя – в его мужской и женской ипостасях – было на заказ создано 17 пар обуви, в том числе уникальные кроссовки на шпильке.
Высота невероятных меховых головных уборов персонажа Татьяны Орловой достигает 70 см, а это выше, чем у английских королевских гвардейцев. Чтобы носить такую шапку, нужно учиться балансировать.
Для крепостных крестьян было сшито 100 костюмов с принтами на тему гравюр XIX века, изображающих Москву.
На солдатах отступающей французской армии можно заметить забавные детали одежды, выполненные из популярных клетчатых хозяйственных сумок – головные уборы, вещмешки, плащи, шорты и т.д. На них ушло в общей сложности 55 сумок.
В самой масштабной сцене фильма приняло участие около 500 актеров массовых сцен.
В фильм вошли более 10 специально поставленных танцевальных номеров.

Скриншоты

Скриншоты меню

[Торрент-статистика]
[Профиль]  [ЛС] 
Показать сообщения:    
Ответить на тему

Текущее время: Сегодня 01:50

Часовой пояс: GMT + 4



Вы не можете начинать темы
Вы не можете отвечать на сообщения
Вы не можете редактировать свои сообщения
Вы не можете удалять свои сообщения
Вы не можете голосовать в опросах
Вы не можете прикреплять файлы к сообщениям
Вы не можете скачивать файлы