Притчи 2 (Виталий Любецкий) [2012, Беларусь, драма, DVD9] R5

Ответить на тему
 
Автор
Сообщение

diim ®

Пол:

Стаж: 1 год 10 месяцев

Сообщений: 1033

Репутация: 112 [+] [-]

Пост 06-Янв-2012 01:05

[Цитировать] 

Притчи 2-Год выпуска: 2012
Страна: Беларусь (Беларусьфильм)
Жанр: драма, семейный
Продолжительность: 01:01:29
Перевод: Не требуется
Субтитры: Нет--Режиссёр: Виталий Любецкий-В ролях: Александр Ткаченок, Михаил Ейсман, Елена Сидорова, Никита Пальчевский, Андрей Волчек--Описание: Эта лента — продолжение фильма «Притчи», выпущенного в 2011 году. И снова три рассказа, три повода с доброй улыбкой понаблюдать за старыми знакомыми и задуматься: в чем они правы, а в чем нет. Герой первой истории «Лампадка» — послушник, тот самый, что на кладбище ходил покойников ругать. Снова он оплошал. «В чем кого осудишь — в том и сам побудешь», — говорит старец и в назидание дает ему новое послушание: пройти вокруг деревни с лампадкой в руках, не пролив ни капли масла и не затушив огня... В новелле «Рубашка» — Мария, которая Спасителя в гости ждала, проходит через новые искушения. Трудно ей одной хозяйство дачное вести, а еще трудней по-христиански людей прощать. Но Мария не унывает — добром платит за зло, молится и ждет чуда. И оно происходит...--Доп.информация: Смотрите на DVD, информационная поддержка-- -Качество: DVD9 R5
Формат: DVD Video
Видео кодек: MPEG2
Аудио кодек: AC3 (Dolby Digital)
Видео: PAL 4:3 (720x576(0.768)) MPEG Video, 25,000 кадр/сек, 7961 Кбит/сек
Аудио #1: Russian: (Dolby AC3, 2 ch) 256 Кбит/сек, 48,0 КГц [Не требуется]
Субтитры: Нет-

DVDInfo

Title:
Size: 5.79 Gb ( 6 068 928 KBytes ) - DVD-9
Enabled regions: 1, 2, 3, 4, 5, 6, 7, 8
VTS_01 :
Play Length: 00:02:15
Video: PAL 4:3 (720x576) VBR
Audio:
Not specified (Dolby AC3, 2 ch)
VTS_02 :
Play Length: 00:02:05
Video: PAL 4:3 (720x576) VBR
Audio:
English (Dolby AC3, 2 ch)
VTS_03 :
Play Length: 00:01:35
Video: PAL 4:3 (720x576) VBR
Audio:
English (Dolby AC3, 2 ch)
VTS_04 :
Play Length: 00:01:54
Video: PAL 4:3 (720x576) VBR
Audio:
English (Dolby AC3, 2 ch)
VTS_05 :
Play Length: 00:02:27
Video: PAL 4:3 (720x576) VBR
Audio:
English (Dolby AC3, 2 ch)
VTS_06 :
Play Length: 00:02:18
Video: PAL 4:3 (720x576) VBR
Audio:
English (Dolby AC3, 2 ch)
VTS_07 :
Play Length: 00:01:00
Video: PAL 4:3 (720x576) VBR
Audio:
English (Dolby AC3, 2 ch)
VTS_08 :
Play Length: 00:02:05
Video: PAL 4:3 (720x576) VBR
Audio:
English (Dolby AC3, 2 ch)
VTS_09 :
Play Length: 00:02:15
Video: PAL 4:3 (720x576) VBR
Audio:
English (Dolby AC3, 2 ch)
VTS_10 :
Play Length: 00:01:45
Video: PAL 4:3 (720x576) VBR
Audio:
English (Dolby AC3, 2 ch)
VTS_11 :
Play Length: 00:02:39
Video: PAL 4:3 (720x576) VBR
Audio:
English (Dolby AC3, 2 ch)
VTS_12 :
Play Length: 00:01:02
Video: PAL 4:3 (720x576) VBR
Audio:
English (Dolby AC3, 2 ch)
VTS_13 :
Play Length: 00:02:04
Video: PAL 4:3 (720x576) VBR
Audio:
English (Dolby AC3, 2 ch)
VTS_14 :
Play Length: 01:01:29
Video: PAL 4:3 (720x576) VBR
Audio:
Russian (Dolby AC3, 2 ch)
VTS_15 :
Play Length: 00:00:01
Video: PAL 4:3 (720x576) VBR
Audio:
English (Dolby AC3, 2 ch)
English (Dolby AC3, 2 ch)
English (Dolby AC3, 2 ch)
VTS_16 :
Play Length: 00:09:55
Video: PAL 4:3 (720x576) VBR
Audio:
English (Dolby AC3, 2 ch)
Menu Video:
PAL 4:3 (720x576) VBR
Menu Subtitles:
Not specified
Menu English Language Unit :
Root Menu

MediaInfo

Общее
Полное имя : G:\Новинки 2011\Pritchi.2.2011.DVD9\VIDEO_TS\VTS_14_1.VOB
Формат : MPEG-PS
Размер файла : 1024 Мбайт
Продолжительность : 17 м.
Общий поток : 8383 Кбит/сек
Видео
Идентификатор : 224 (0xE0)
Формат : MPEG Video
Версия формата : Version 2
Профиль формата : Main@Main
Параметр BVOP формата : Да
Параметр матрицы формата : По умолчанию
Параметр GOP формата : M=3, N=12
Продолжительность : 17 м.
Битрейт : 7961 Кбит/сек
Максимальный битрейт : 8000 Кбит/сек
Ширина : 720 пикселей
Высота : 576 пикселей
Соотношение сторон : 4:3
Частота кадров : 25,000 кадров/сек
Стандарт вещания : PAL
Цветовое пространство : YUV
Субдискретизация насыщенности : 4:2:0
Битовая глубина : 8 бит
Тип развёртки : Прогрессивная
Метод сжатия : С потерями
Бит/(Пиксели*Кадры) : 0.768
Размер потока : 972 Мбайт (95%)
Аудио
Идентификатор : 189 (0xBD)-128 (0x80)
Формат : AC-3
Формат/Информация : Audio Coding 3
Расширение режима : CM (complete main)
Режим смешивания : DVD-Video
Продолжительность : 17 м.
Вид битрейта : Постоянный
Битрейт : 256 Кбит/сек
Каналы : 2 канала
Расположение каналов : Front: L R
Частота : 48,0 КГц
Битовая глубина : 16 бит
Метод сжатия : С потерями
Задержка видео : -80 мс.
Размер потока : 31,3 Мбайт (3%)

Скриншоты

Скриншоты меню

[Торрент-статистика]
[Профиль]  [ЛС] 
Показать сообщения:    
Ответить на тему

Текущее время: Сегодня 16:17

Часовой пояс: GMT + 4



Вы не можете начинать темы
Вы не можете отвечать на сообщения
Вы не можете редактировать свои сообщения
Вы не можете удалять свои сообщения
Вы не можете голосовать в опросах
Вы не можете прикреплять файлы к сообщениям
Вы не можете скачивать файлы