Убежище / Sanctuary / Сезон 2 / Серии 1-13 из 13 (Мартин Вуд, Стивен А. Эделсон, Брентон Спенсер) [2009, фантастика, криминал, детектив, DVDRip] ТВ3

Ответить на тему
 
Автор
Сообщение

awk05 ®

Пол:

Стаж: 8 лет 7 месяцев

Сообщений: 1334

Репутация: 278 [+] [-]

Откуда: Западная Украина Ривне

Пост 28-Дек-2013 00:14

[Цитировать] 

--Убежище / Sanctuary«Они ищут тех, кто прячется...»-- Год выпуска: 2009
Страна: США, Канада
Жанр: фантастика, криминал, детектив
Сезон/Серия: Сезон:2 /Серия 1-13 из 13
Продолжительность: 13 x ~00:43:00
Перевод: профессиональный многоголосый закадровый + Original
Озвучка / Автор перевода: ТВ3
Русские субтитры: нет--Режиссёр: Мартин Вуд, Стивен А. Эделсон, Брентон Спенсер--В ролях: Аманда Таппинг, Робин Данн, Кристофер Хейердал, Леа Кейрнс, Миранда Фригон, Лаура Меннелл, Райан Роббинс, Питер ДеЛуис.--Описание:«Убежище» — это сериал о приключениях красивой, загадочной и всегда удивительной доктора Хелен Магнус и её новых помощников: бывшего судебного психиатра доктора Уилла Циммермана, технического гения Генри, её дочери Эшли и мошенницы Кейт Фрилендер. Вместе они выслеживают, изучают и охраняют странных и часто страшных существ, которые тайно заполонили наш мир и живут среди нас. Вместе с Магнус Уилл, Эшли и Генри, а позже и с Кейт используют уникальное сочетание инстинктов, медицины и передовых технологий, чтобы найти существ, которые скрываются в уголках нашей цивилизации, и защитить нас от тех, кто слишком опасен, или защитить от нас их.--Качество видео: DVDRip
Формат видео: AVI
Видео кодек: MPEG4, XviD
Аудио кодек: MP3
Видео: MPEG4, XviD, 624x352 (16:9), 23.976 fps, 925 Kbps (0.176 bit/pixel)
Аудио 1: MP3, 48.0 KHz, 2 ch, 128 Kbps, CBR, 16 bits [Русский]
Аудио 2: MP3, 48.0 KHz, 2 ch, 143 Kbps, VBR, 16 bits [Английский] -- --

Список серий

Кадры из фильма



Тех. данные (MI)

Код:
Общее
Полное имя                               : E:\тест\Убежище 2\sanctuary.s02e01.dvdrip.rus.eng.gravi-tv.avi
Формат                                   : AVI
Формат/Информация                        : Audio Video Interleave
Размер файла                             : 393 Мбайт
Продолжительность                        : 45 м.
Режим общего битрейта                    : Переменный
Общий поток                              : 1213 Кбит/сек
Программа кодирования                    : VirtualDubMod 1.6.0.0 SURROUND (build 2560/release)
Библиотека кодирования                   : VirtualDubMod build 2560/release
Видео
Идентификатор                            : 0
Формат                                   : MPEG-4 Visual
Профиль формата                          : Advanced Simple@L5
Параметр BVOP формата                    : 2
Параметр QPel формата                    : Нет
Параметр GMC формата                     : Без точки перехода
Параметр матрицы формата                 : Default (H.263)
Режим смешивания                         : Сжатый битовый поток
Идентификатор кодека                     : XVID
Идентификатор кодека/Подсказка           : XviD
Продолжительность                        : 45 м.
Битрейт                                  : 925 Кбит/сек
Ширина                                   : 624 пикселя
Высота                                   : 352 пикселя
Соотношение сторон                       : 16:9
Частота кадров                           : 23,976 кадра/сек
Цветовое пространство                    : YUV
Субдискретизация насыщенности            : 4:2:0
Битовая глубина                          : 8 бит
Тип развёртки                            : Прогрессивная
Метод сжатия                             : С потерями
Бит/(Пиксели*Кадры)                      : 0.176
Размер потока                            : 300 Мбайт (76%)
Библиотека кодирования                   : XviD 1.2.1 (UTC 2008-12-04)
Аудио #1
Идентификатор                            : 1
Формат                                   : MPEG Audio
Версия формата                           : Version 1
Профиль формата                          : Layer 3
Режим                                    : Joint stereo
Расширение режима                        : MS Stereo
Идентификатор кодека                     : 55
Идентификатор кодека/Подсказка           : MP3
Продолжительность                        : 45 м.
Вид битрейта                             : Постоянный
Битрейт                                  : 128 Кбит/сек
Каналы                                   : 2 канала
Частота                                  : 48,0 КГц
Метод сжатия                             : С потерями
Размер потока                            : 41,5 Мбайт (11%)
Выравнивание                             : Соединение по промежуткам
Продолжительность промежутка             : 42  мс. (1,00 видеокадр)
Время предзагрузки промежутка            : 504  мс.
Аудио #2
Идентификатор                            : 2
Формат                                   : MPEG Audio
Версия формата                           : Version 1
Профиль формата                          : Layer 3
Режим                                    : Joint stereo
Расширение режима                        : MS Stereo
Идентификатор кодека                     : 55
Идентификатор кодека/Подсказка           : MP3
Продолжительность                        : 45 м.
Вид битрейта                             : Переменный
Битрейт                                  : 143 Кбит/сек
Минимальный битрейт                      : 32,0 Кбит/сек
Каналы                                   : 2 канала
Частота                                  : 48,0 КГц
Метод сжатия                             : С потерями
Размер потока                            : 46,3 Мбайт (12%)
Выравнивание                             : Соединение по промежуткам
Продолжительность промежутка             : 24  мс. (0,58 видеокадр)
Время предзагрузки промежутка            : 526  мс.
Библиотека кодирования                   : LAME3.98r
Настройки программы                      : -m j -V 4 -q 2 -lowpass 17.5 --vbr-new -b 32
«СЕЗОН 1» «СЕЗОН 2» «СЕЗОН 3» «СЕЗОН 4»

_________________
[Торрент-статистика]
[Профиль]  [ЛС] 
Показать сообщения:    
Ответить на тему

Текущее время: Сегодня 21:49

Часовой пояс: GMT + 4



Вы не можете начинать темы
Вы не можете отвечать на сообщения
Вы не можете редактировать свои сообщения
Вы не можете удалять свои сообщения
Вы не можете голосовать в опросах
Вы не можете прикреплять файлы к сообщениям
Вы не можете скачивать файлы