Убежище / Sanctuary / Сезон 3 / Серии 1-20 из 20 (Мартин Вуд, Стивен А. Эделсон, Брентон Спенсер) [2010, фантастика, криминал, детектив, WEB-DLRip] MVO SyFy

Ответить на тему
 
Автор
Сообщение

awk05 ®

Пол:

Стаж: 8 лет 7 месяцев

Сообщений: 1334

Репутация: 278 [+] [-]

Откуда: Западная Украина Ривне

Пост 28-Дек-2013 00:11

[Цитировать] 

--Убежище / Sanctuary«Они ищут тех, кто прячется...»-- Год выпуска: 2010
Страна: США, Канада
Жанр: фантастика, криминал, детектив
Сезон/Серия: Сезон:3 /Серия 1-20 из 20
Продолжительность: 20 x ~00:45:00
Перевод: профессиональный многоголосый закадровый + Original
Озвучка / Автор перевода: (SyFy)
Русские субтитры: нет--Режиссёр: Мартин Вуд, Стивен А. Эделсон, Брентон Спенсер--В ролях: Аманда Таппинг, Робин Данн, Кристофер Хейердал, Райан Роббинс, Агам Дарши, Джонатан Янг, Линда Бойд,Чак Кэмпбелл, Кристин Шателейн--Описание: «Убежище» — это сериал о приключениях красивой, загадочной и всегда удивительной доктора Хелен Магнус и её новых помощников: бывшего судебного психиатра доктора Уилла Циммермана, технического гения Генри, её дочери Эшли и мошенницы Кейт Фрилендер. Вместе они выслеживают, изучают и охраняют странных и часто страшных существ, которые тайно заполонили наш мир и живут среди нас. Вместе с Магнус Уилл, Эшли и Генри, а позже и с Кейт используют уникальное сочетание инстинктов, медицины и передовых технологий, чтобы найти существ, которые скрываются в уголках нашей цивилизации, и защитить нас от тех, кто слишком опасен, или защитить от нас их.--Качество видео: WEB-DLRip
Формат видео: AVI
Видео кодек: MPEG4, XviD
Аудио кодек: MP3
Видео: MPEG4, XviD, 720x400 (16:9), 23.976 fps, 1 000 Kbps (0.145 bit/pixel)
Аудио 1: MP3, 48.0 KHz, 2 ch, 128 Kbps, CBR, 16 bits [Русский]
Аудио 2: MP3, 48.0 KHz, 2 ch, 128 Kbps, CBR, 16 bits [Английский] -- --

Список серий

01. Кали: Часть 3 / Kali: Part 3
02. Огненная стена / Firewall
03. Работа в банке / Bank Job
04. След крови / Trail of Blood
05. Герой 2: Сломанная Стрела / Hero II: Broken Arrow
06. Дух / Animus
07. Нарушение / Breach
08. За короля и отечество / For King And Country
09. Суд Линча / Vigilante
10. Полые люди / Hollow Men
11. Римский мир / Pax Romana
12. Безумие / Hangover
13. Одна ночь / One Night
14. Метаморфоз / Metamorphosis
15. Предложение / Wingman
16. Пробуждение / Awakening
17. Нормандия / Normandy
18. Карентан / Carentan
19. Совершенно неожиданно / Out of the Blue
20. В чёрном / Into the Black

Кадры из фильма



Тех. данные (MI)

Код:
Общее
Полное имя                               : E:\тест\Sanctuary.s03.SyFy\Sanctuary.3x01.WEB-DLRip.Rus-SyFy.Eng.avi
Формат                                   : AVI
Формат/Информация                        : Audio Video Interleave
Размер файла                             : 395 Мбайт
Продолжительность                        : 43 м.
Общий поток                              : 1270 Кбит/сек
Программа кодирования                    : VirtualDubMod 1.5.10.2 (build 2540/release)
Библиотека кодирования                   : VirtualDubMod build 2540/release
Видео
Идентификатор                            : 0
Формат                                   : MPEG-4 Visual
Профиль формата                          : Advanced Simple@L5
Параметр BVOP формата                    : 1
Параметр QPel формата                    : Нет
Параметр GMC формата                     : Без точки перехода
Параметр матрицы формата                 : Default (H.263)
Идентификатор кодека                     : XVID
Идентификатор кодека/Подсказка           : XviD
Продолжительность                        : 43 м.
Битрейт                                  : 1000 Кбит/сек
Ширина                                   : 720 пикселей
Высота                                   : 400 пикселей
Соотношение сторон                       : 16:9
Частота кадров                           : 23,976 кадра/сек
Цветовое пространство                    : YUV
Субдискретизация насыщенности            : 4:2:0
Битовая глубина                          : 8 бит
Тип развёртки                            : Прогрессивная
Метод сжатия                             : С потерями
Бит/(Пиксели*Кадры)                      : 0.145
Размер потока                            : 311 Мбайт (79%)
Библиотека кодирования                   : XviD 1.2.1 (UTC 2008-12-04)
Аудио #1
Идентификатор                            : 1
Формат                                   : MPEG Audio
Версия формата                           : Version 1
Профиль формата                          : Layer 3
Режим                                    : Joint stereo
Расширение режима                        : MS Stereo
Идентификатор кодека                     : 55
Идентификатор кодека/Подсказка           : MP3
Продолжительность                        : 43 м.
Вид битрейта                             : Постоянный
Битрейт                                  : 128 Кбит/сек
Каналы                                   : 2 канала
Частота                                  : 48,0 КГц
Метод сжатия                             : С потерями
Размер потока                            : 39,9 Мбайт (10%)
Выравнивание                             : Соединение по промежуткам
Продолжительность промежутка             : 42  мс. (1,00 видеокадр)
Время предзагрузки промежутка            : 504  мс.
Аудио #2
Идентификатор                            : 2
Формат                                   : MPEG Audio
Версия формата                           : Version 1
Профиль формата                          : Layer 3
Идентификатор кодека                     : 55
Идентификатор кодека/Подсказка           : MP3
Продолжительность                        : 43 м.
Вид битрейта                             : Постоянный
Битрейт                                  : 128 Кбит/сек
Каналы                                   : 2 канала
Частота                                  : 48,0 КГц
Метод сжатия                             : С потерями
Размер потока                            : 39,9 Мбайт (10%)
Выравнивание                             : Соединение по промежуткам
Продолжительность промежутка             : 42  мс. (1,00 видеокадр)
Время предзагрузки промежутка            : 504  мс.
Библиотека кодирования                   : LAME3.98r
Настройки программы                      : -m s -V 4 -q 2 -lowpass 17 -b 128
«СЕЗОН 1» «СЕЗОН 2» «СЕЗОН 3» «СЕЗОН 4»

_________________
[Торрент-статистика]
[Профиль]  [ЛС] 
Показать сообщения:    
Ответить на тему

Текущее время: Сегодня 11:21

Часовой пояс: GMT + 4



Вы не можете начинать темы
Вы не можете отвечать на сообщения
Вы не можете редактировать свои сообщения
Вы не можете удалять свои сообщения
Вы не можете голосовать в опросах
Вы не можете прикреплять файлы к сообщениям
Вы не можете скачивать файлы