Тайные связи / Covert Affairs / Сезон: 1 / Серии: 1-11 из 11 (Тим Мэтисон) [2010, Боевик, драма, WEB-DLRip] MVO (Fox Life)

Ответить на тему
 
Автор
Сообщение

awk05 ®

Пол:

Стаж: 8 лет 5 месяцев

Сообщений: 1334

Репутация: 278 [+] [-]

Откуда: Западная Украина Ривне

Пост 23-Ноя-2013 03:41

[Цитировать] 

--Тайные связи / Covert Affairs--
Год выпуска: 2010
Страна: США
Жанр: Боевик, драма
Продолжительность: 01:05:21
Перевод: Профессиональный (многоголосый закадровый) - Fox Life
Русские субтитры: нет
Субтитры: Нет--Режиссёр: Тим Мэтисон--В ролях: Пайпер Перабо, Кристофер Горам, Эрик Лайвли, Кэри Матчетт, Питер Галлахер, Энн Дудек-Описание: На новой работе всегда нелегко – особенно, если тебе предстоит работать в ЦРУ. Энни Уолкер (Пайпер Перабо) бегло говорит на шести языках, объездила весь мир и является самой лучшей ученицей в школе агентов ЦРУ. Но это все-равно не дает никакого объяснения, почему за месяц до окончания обучения, ее внезапно приглашают в главный офис ЦРУ и предлагают работу агента. Также для нее остается неизвестным, что в ее прошлом есть что-то или кто-то, очень интересующий ее боссов. Эгги Андерсон (Кристофер Горхем), техэксперт, потерявший зрение на одном из заданий, становится для Энни проводником и верным помощником в огромном мире интриг, опасности и бюрократии.--Над релизом работали:
Озвучка: Fox Life
Звук предоставил: Baggio
Работа со звуком: Baggio-- --Качество: WEB-DLRip
Формат: AVI
Видео кодек: XviD
Аудио кодек: MP3
Видео: 720x400 (1.80:1), 23.976 fps, XviD build 64, 1225 kbps , 0.18 bit/pixel
Аудио: Русский :48 kHz, MPEG Layer 3, 2 ch, 128.00 kbps avg
Аудио 2: Английский: 48 kHz, MPEG Layer 3, 2 ch, 128.00 kbps avg

Список серий

За исключением первой серии все эпизоды первого сезона имеют названия песен группы Led Zeppelin. На русский язык названия серий переведены дословно.
01. «Welcome to the CIA» /«Добро пожаловать в ЦРУ»
02. «Walter's Walk» /«Прогулка Уолтера»
03. «South Bound Suarez» /«Юг связан с Суарезом»
04. «No Quarter» /«Без четверти»
05. «In the Light» /«В свете»
06. «Houses of the Holy» /«Дома святых»
07. «Communication Breakdown» /«Отсутствие взаимопонимания»
08. «What Is and What Should Never Be» /«Что есть и чего никогда не будет»
09. «Fool in the Rain» /«Дурак под дождем»
10. «I Can't Quit You Baby» /«Я не могу бросить тебя, детка»
11. «When the Levee Breaks» /«Когда прорывается дамба»

MI

General
Complete name : covert.affairs.s01e01.webdl.rus.eng.newstudio.avi
Format : AVI
Format/Info : Audio Video Interleave
File size : 700 MiB
Duration : 1h 5mn
Overall bit rate : 1 496 Kbps
Writing application : VirtualDubMod 1.5.10.2 (build 2542/release)
Writing library : VirtualDubMod build 2542/release
Video
Format : MPEG-4 Visual
Format profile : Streaming Video@L1
Format settings, BVOP : Yes
Format settings, QPel : No
Format settings, GMC : No warppoints
Format settings, Matrix : Default (MPEG)
Codec ID : XVID
Codec ID/Hint : XviD
Duration : 1h 5mn
Bit rate : 1 226 Kbps
Width : 720 pixels
Height : 400 pixels
Display aspect ratio : 16/9
Frame rate : 23.976 fps
Resolution : 24 bits
Colorimetry : 4:2:0
Scan type : Progressive
Bits/(Pixel*Frame) : 0.178
Stream size : 573 MiB (82%)
Writing library : XviD 64
Audio #1
Format : MPEG Audio
Format version : Version 1
Format profile : Layer 3
Codec ID : 55
Codec ID/Hint : MP3
Duration : 1h 5mn
Bit rate mode : Constant
Bit rate : 128 Kbps
Channel(s) : 2 channels
Sampling rate : 48.0 KHz
Resolution : 16 bits
Stream size : 59.8 MiB (9%)
Alignment : Aligned on interleaves
Interleave, duration : 42 ms (1.00 video frame)
Interleave, preload duration : 504 ms
Audio #2
Format : MPEG Audio
Format version : Version 1
Format profile : Layer 3
Codec ID : 55
Codec ID/Hint : MP3
Duration : 1h 5mn
Bit rate mode : Constant
Bit rate : 128 Kbps
Channel(s) : 2 channels
Sampling rate : 48.0 KHz
Resolution : 16 bits
Stream size : 59.8 MiB (9%)
Alignment : Aligned on interleaves
Interleave, duration : 42 ms (1.00 video frame)
Interleave, preload duration : 504 ms

Скриншоты

Внимание! Раздача ведётся путём добавления новых серий

Внимание! Раздача ведётся путём добавления новых серий; при каждом добавлении создётся новый торрент. Чтобы начать докачку новой серии, пользователям необходимо сделать следующее:
(1) остановить скачивание,
(2) удалить старый торрент у себя из клиента (старые серии удалять не надо),
(3) скачать новый торрент и запустить его у себя в клиенте вместо старого, при этом указать клиенту путь в старую папку куда и должно происходить скачивание новых серий.
Ваш клиент при этом должен произвести хеширование (проверку) старой папки (если не производит сам - помогите ему сделать это), и будет докачивать только те серии которых у вас ещё нет. Старые серии при этом не удаляются, а продолжают раздаваться!
Eсли вы уже удалили старые серии, то предотвратить повторную закачку старых серий можно, отжав галочку в соответсвующих местах при запуске нового торрента. По возможности, желательно не удалять старые серии как можно дольше чтобы релизёр не столько продолжал раздавать старые серии, а смог сконцентрироваться на новых.
«СЕЗОН 1» «СЕЗОН 2»«СЕЗОН 3» «СЕЗОН 4»

_________________
[Торрент-статистика]
[Профиль]  [ЛС] 
Показать сообщения:    
Ответить на тему

Текущее время: Сегодня 21:07

Часовой пояс: GMT + 4



Вы не можете начинать темы
Вы не можете отвечать на сообщения
Вы не можете редактировать свои сообщения
Вы не можете удалять свои сообщения
Вы не можете голосовать в опросах
Вы не можете прикреплять файлы к сообщениям
Вы не можете скачивать файлы