Подпольная империя / Boardwalk Empire /Сезон 3/серии 1-12из(12) (Тимоти Ван Паттен,Аллен Култер) [2012 г., криминальная драма, WEBRip]

Ответить на тему
 
Автор
Сообщение

3232fox ®

Пол:

Стаж: 4 года 6 месяцев

Сообщений: 614

Репутация: 423 [+] [-]

Откуда: Крым,Россия

Пост 26-Сен-2013 00:40

[Цитировать] 

-Подпольная империя / Boardwalk Empire --Год выпуска: 2012
Страна: США
Жанр: криминальная драма
Продолжительность: 0:55 минут
Перевод:Профессиональный многоголосый закадровый - (Lostfilm)--Режиссер: Тимоти Ван Паттен,Аллен Култер--В ролях: Анна Катарина, Стив Бушеми, Майкл Питт, Тодд Фредерикс, Уильям Хилл, Джек Хьюстон, Николас Мартино, Пьер О'Фэррелл, Кен Следик, Ши Уигхэм
--Описание: 1920 год. Через несколько часов Атлантик-Сити — столица развлечений и порока, как и вся Америка, вступит в эпоху «Сухого закона». Енох «Наки» Томпсон, днем — городской казначей, а ночью — хитроумный гангстер со связями на самом «верху», решает воспользоваться ситуацией и получить баснословные прибыли на подпольной торговле алкоголем. Однако не он один жаждет обогатиться на новом промысле…--Тип релиза: WEBRip
Контейнер: AVI
Видео кодек: XviD
Аудио кодек: AC3 (Dolby Digital)
Видео: 720x400 (16/9), 23.976 fps, 1 199 Kbps (0.174 bit/pixel)
Аудио: Аудио Rus: AC-3, 48.0 KHz, 2 ch, 192 Kbps, CBR--

Скриншоты

MI

General
Complete name : G:\видео\Boardwalk.Empire.S03.LostFilm\Boardwalk.Empire.S03E04.rus.LostFilm.TV.avi
Format : AVI
Format/Info : Audio Video Interleave
File size : 428 MiB
Duration : 57mn 20s
Overall bit rate : 1 043 Kbps
Writing application : Nandub v1.0rc2
Writing library : Nandub build 1853/release
Video
ID : 0
Format : MPEG-4 Visual
Format profile : Simple@L3
Format settings, BVOP : No
Format settings, QPel : No
Format settings, GMC : No warppoints
Format settings, Matrix : Default (H.263)
Codec ID : XVID
Codec ID/Hint : XviD
Duration : 57mn 20s
Bit rate : 842 Kbps
Width : 720 pixels
Height : 400 pixels
Display aspect ratio : 16:9
Frame rate : 23.976 fps
Color space : YUV
Chroma subsampling : 4:2:0
Bit depth : 8 bits
Scan type : Progressive
Compression mode : Lossy
Bits/(Pixel*Frame) : 0.122
Stream size : 345 MiB (81%)
Writing library : XviD 1.2.1 (UTC 2008-12-04)
Audio
ID : 1
Format : MPEG Audio
Format version : Version 1
Format profile : Layer 3
Mode : Joint stereo
Mode extension : MS Stereo
Codec ID : 55
Codec ID/Hint : MP3
Duration : 57mn 20s
Bit rate mode : Variable
Bit rate : 192 Kbps
Channel(s) : 2 channels
Sampling rate : 48.0 KHz
Compression mode : Lossy
Stream size : 77.3 MiB (18%)
Alignment : Aligned on interleaves
Interleave, duration : 24 ms (0.58 video frame)
Interleave, preload duration : 452 ms
Writing library : LAME3.97b
Encoding settings : -m j -V 4 -q 3 -lowpass 18.6 --abr 192


Последний раз редактировалось: 3232fox (2013-12-13 18:28), всего редактировалось 1 раз
[Торрент-статистика]
[Профиль]  [ЛС] 

Сфинксик

Пол:

Стаж: 4 года 4 месяца

Сообщений: 1660

Репутация: 1033 [+] [-]

Откуда: г.Раменское

Пост 26-Сен-2013 01:48 (спустя 1 час 7 минут)

[Цитировать] 

+ за труды, позже скачаю, правда первые два тоже не видел.

_________________
ЕСЛИ НЕТ СИДОВ НА РАЗДАЧЕ СТУЧИТЕ В ЛИЧКУ В ТЕЧЕНИИ СУТОК ВОССТАНОВЛЮ!!!!
[Торрент-статистика]
[Профиль]  [ЛС] 
Показать сообщения:    
Ответить на тему

Текущее время: Сегодня 00:09

Часовой пояс: GMT + 4



Вы не можете начинать темы
Вы не можете отвечать на сообщения
Вы не можете редактировать свои сообщения
Вы не можете удалять свои сообщения
Вы не можете голосовать в опросах
Вы не можете прикреплять файлы к сообщениям
Вы не можете скачивать файлы