Подпольная Империя / Boardwalk Empire/Сезон 1/Серия 1-12(12) (Тимоти Ван Паттен, Аллен Култер) [2010 г., криминальная драма, HDTVRip]

Ответить на тему
 
Автор
Сообщение

3232fox ®

Пол:

Стаж: 4 года 6 месяцев

Сообщений: 614

Репутация: 423 [+] [-]

Откуда: Крым,Россия

Пост 25-Сен-2013 23:33

[Цитировать] 

-Подпольная Империя / Boardwalk Empire--Год выпуска: 2010
Страна: США
Жанр: криминальная драма
Продолжительность: 01:12:25
Озвучивание: Профессиональное, закадровое LostFilm--Режиссер: Тимоти Ван Паттен, Аллен Култер--В ролях: Ши Уигхэм, Кен Следик, Майкл Питт, Джек Хьюстон, Стив Бушеми, Алекса Палладино, Тодд Фредерикс, Уильям Хилл, Николас Мартино, Пьер О'Фэррелл--Описание: 1920 год. Через несколько часов Атлантик-Сити — столица развлечений и порока, как и вся Америка, вступит в эпоху «Сухого закона». Енох «Наки» Томпсон, днем — городской казначей, а ночью — хитроумный гангстер со связями на самом «верху», решает воспользоваться ситуацией и получить баснословные прибыли на подпольной торговле алкоголем. Однако не он один жаждет обогатиться на новом промысле…
--Тип релиза: HDTVRip
Контейнер: AVI
Видео кодек: XviD
Аудио кодек: MP3 (MPEG1 Layer 3)
Видео: 704x400 (1.76:1), 23.976 fps, XviD build 50, 1152 kbps avg, 0.17 bit/pixel
Аудио: 48 kHz, MPEG Layer 3, 2 ch, 192.00 kbps avg--

Скриншоты

MI

General
Complete name : G:\видео\Boardwalk Empire Season 1 LostFilm\Boardwalk.Empire.s01e01.rus.LostFilm.TV.avi
Format : AVI
Format/Info : Audio Video Interleave
File size : 704 MiB
Duration : 1h 12mn
Overall bit rate : 1 358 Kbps
Writing application : Nandub v1.0rc2
Writing library : Nandub build 1853/release
Video
ID : 0
Format : MPEG-4 Visual
Format profile : Advanced Simple@L5
Format settings, BVOP : Yes
Format settings, QPel : No
Format settings, GMC : No warppoints
Format settings, Matrix : Custom
Codec ID : XVID
Codec ID/Hint : XviD
Duration : 1h 12mn
Bit rate : 1 153 Kbps
Width : 704 pixels
Height : 400 pixels
Display aspect ratio : 16:9
Frame rate : 23.976 fps
Color space : YUV
Chroma subsampling : 4:2:0
Bit depth : 8 bits
Scan type : Progressive
Compression mode : Lossy
Bits/(Pixel*Frame) : 0.171
Stream size : 598 MiB (85%)
Writing library : XviD 1.2.1 (UTC 2008-12-04)
Audio
ID : 1
Format : MPEG Audio
Format version : Version 1
Format profile : Layer 3
Mode : Joint stereo
Codec ID : 55
Codec ID/Hint : MP3
Duration : 1h 12mn
Bit rate mode : Constant
Bit rate : 192 Kbps
Channel(s) : 2 channels
Sampling rate : 48.0 KHz
Compression mode : Lossy
Stream size : 99.5 MiB (14%)
Alignment : Aligned on interleaves
Interleave, duration : 24 ms (0.58 video frame)
Interleave, preload duration : 480 ms
[Торрент-статистика]
[Профиль]  [ЛС] 
Показать сообщения:    
Ответить на тему

Текущее время: Сегодня 00:03

Часовой пояс: GMT + 4



Вы не можете начинать темы
Вы не можете отвечать на сообщения
Вы не можете редактировать свои сообщения
Вы не можете удалять свои сообщения
Вы не можете голосовать в опросах
Вы не можете прикреплять файлы к сообщениям
Вы не можете скачивать файлы