Пункт назначения 5 / Final Destination 5 (Стивен Куэйл) [2011, ужасы, триллер, BDRip 1080p] R5

Ответить на тему
 
Автор
Сообщение

diim ®

Пол:

Стаж: 6 лет 2 месяца

Сообщений: 1038

Репутация: 112 [+] [-]

Пост 16-Дек-2011 03:43

[Цитировать] 

Пункт назначения 5
Final Destination 5
Год выпуска: 2011
Страна: США
Слоган: «Опасность ещё не была столь близка»
Жанр: ужасы, триллер
Продолжительность: 01:31:49
Перевод: Профессиональный (полное дублирование)
Режиссер: Стивен Куэйл
Сценарий: Эрик Хайссерер, Джеффри Реддик
Продюсер: Крэйг Перри, Уоррен Зайд, Ричард Бренер, Шила Ханахэн, Мэтью Харт
Оператор: Брайан Пирсон
Композитор: Брайан Тайлер
В ролях: Николас Д’Агосто, Эмма Белл, Майлз Фишер, Эллен Ро, Жаклин МакИннес Вуд, П.Дж. Бирн, Арлен Эскарпета, Дэвид Кокнер, Кортни Б. Вэнс, Тони Тодд, Брент Стейт, Роман Подхора
Дублёры: Даниил Эльдаров, Евгений Вальц, Мария Иващенко, Ирина Киреева, Диомид Виноградов, Денис Яковлев, Константин Карасик, Владислав Копп, Олег Куценко, Юрий Маляров, Вероника Саркисова, Александр Дасевич-Описание: У Сэма Лоутона происходит жуткое видение: подвесной мост, на котором он находится со своими друзьями, рушится, и многие люди, включая его самого, погибают. Сэм начинает паниковать и уговаривает своих друзей и ещё нескольких «счастливчиков» уйти с моста. И как раз вовремя: как и предвидел Сэм, мост рушится на их глазах и множество людей погибает. Однако Сэм и его девушка Молли понимают, что смерть дала им лишь отсрочку, так как выжившие начинают погибать один за другим. Он должен понять, как обманув смерть однажды, обмануть её ещё раз, прежде чем настанет его очередь.
-
Качество: BDRip 1080p R5
Формат: MKV
Видео: 1920x798 (2.35:1), H.264, 23.976 fps, 8661 kb/s, 0.236 bit/pixel
Аудио: Russian: AC3, 448 kb/s (6 ch) 48 kHz / English: DTS, 1510 kb/s (6 ch) 48 kHz
Субтитры: Russian, English-

Знаете ли Вы, что...

  • На эпизодическую роль приглашался Майкл Лэндес, сыгравший в сиквеле полицейского Тома Бёрка. Актер уже было принял приглашение, но позже продюсеры отклонили вариант сценария с данным персонажем.
  • Изначально главной героиней должна была стать Эмма Белл - именно она должна была стать «ясновидящей» в одном из вариантов сценария. Но после тестовых съемок продюсеры поменяли Белл на Николаса Д'Агосто, объяснив это решение тем, что исполнением роли актриса была очень похожа на Венди Кристенсен (героиню триквела).
  • Сценарист Эрик Хайссерер серьезно рассматривал возможность катастрофы в такой локации, как аквапарк. Но после консультации с режиссером и продюсерами, сценарист взял за приоритет катастрофу на подвесном мосту.
  • По сюжету фильма разрушается мост Lions Gate, который находится в Ванкувере.

MediaInfo

Код:
Общее
Полное имя                       : Final.Destination.5.BDRip.1080p.Uniongang.tv.mkv
Формат                           : Matroska
Версия формата                   : Version 2
Размер файла                     : 6,81 Гбайт
Продолжительность                : 1 ч. 31 м.
Общий поток                      : 10,6 Мбит/сек
Название фильма                  : Final.Destination.5.BDRip.1080p.Uniongang.tv
Дата кодирования                 : UTC 2011-12-12 18:52:10
Программа кодирования            : mkvmerge v5.1.0 ('And so it goes') built on Nov 28 2011 23:58:28
Библиотека кодирования           : libebml v1.2.3 + libmatroska v1.3.0
Видео
Идентификатор                    : 1
Формат                           : AVC
Формат/Информация                : Advanced Video Codec
Профиль формата                  : High@L4.1
Параметр CABAC формата           : Да
Параметр ReFrames формата        : 5 кадров
Идентификатор кодека             : V_MPEG4/ISO/AVC
Продолжительность                : 1 ч. 31 м.
Битрейт                          : 8661 Кбит/сек
Ширина                           : 1920 пикс.
Высота                           : 798 пикс.
Соотношение сторон               : 2,40:1
Частота кадров                   : 23,976 кадр/сек
Цветовое пространство            : YUV
Подвыборка цветности             : 4:2:0
Битовая глубина                  : 8 бит
Тип развёртки                    : Прогрессивная
Бит/(Пиксели*Кадры)              : 0.236
Размер потока                    : 5,42 Гбайт (80%)
Заголовок                        : Final.Destination.5.BDRip.1080p.Uniongang.tv
Библиотека кодирования           : x264 core 116 r2074 2641b9e
Настройки программы              : cabac=1 / ref=5 / deblock=1:-3:-3 / analyse=0x3:0x113 / me=umh / subme=10 / psy=1 / psy_rd=1.00:0.00 / mixed_ref=1 / me_range=32 / chroma_me=1 / trellis=2 / 8x8dct=1 / cqm=0 / deadzone=21,11 / fast_pskip=0 / chroma_qp_offset=-1 / threads=8 / sliced_threads=0 / nr=0 / decimate=1 / interlaced=0 / bluray_compat=0 / constrained_intra=0 / bframes=6 / b_pyramid=2 / b_adapt=2 / b_bias=0 / direct=3 / weightb=1 / open_gop=0 / weightp=2 / keyint=250 / keyint_min=23 / scenecut=40 / intra_refresh=0 / rc_lookahead=40 / rc=2pass / mbtree=0 / bitrate=8661 / ratetol=1.0 / qcomp=0.70 / qpmin=0 / qpmax=69 / qpstep=4 / cplxblur=20.0 / qblur=0.5 / vbv_maxrate=40000 / vbv_bufsize=40000 / nal_hrd=none / ip_ratio=1.40 / pb_ratio=1.30 / aq=2:0.80
Язык                             : English
Аудио #1
Идентификатор                    : 2
Формат                           : AC-3
Формат/Информация                : Audio Coding 3
Расширение режима                : CM (complete main)
Идентификатор кодека             : A_AC3
Продолжительность                : 1 ч. 31 м.
Вид битрейта                     : Постоянный
Битрейт                          : 448 Кбит/сек
Каналы                           : 6 каналов
Расположение каналов             : Front: L C R, Side: L R, LFE
Частота                          : 48,0 КГц
Битовая глубина                  : 16 бит
Метод сжатия                     : С потерями
Задержка видео                   : 24 мс.
Размер потока                    : 294 Мбайт (4%)
Язык                             : Russian
Аудио #2
Идентификатор                    : 3
Формат                           : DTS
Формат/Информация                : Digital Theater Systems
Идентификатор кодека             : A_DTS
Продолжительность                : 1 ч. 31 м.
Вид битрейта                     : Постоянный
Битрейт                          : 1510 Кбит/сек
Каналы                           : 6 каналов
Расположение каналов             : Front: L C R, Side: L R, LFE
Частота                          : 48,0 КГц
Битовая глубина                  : 24 бит
Метод сжатия                     : С потерями
Размер потока                    : 992 Мбайт (14%)
Язык                             : English
Текст #1
Идентификатор                    : 4
Формат                           : UTF-8
Идентификатор кодека             : S_TEXT/UTF8
Идентификатор кодека/Информация  : UTF-8 Plain Text
Язык                             : Russian
Текст #2
Идентификатор                    : 5
Формат                           : UTF-8
Идентификатор кодека             : S_TEXT/UTF8
Идентификатор кодека/Информация  : UTF-8 Plain Text
Язык                             : English

Скриншоты

[Торрент-статистика]
[Профиль]  [ЛС] 
Показать сообщения:    
Ответить на тему

Текущее время: Сегодня 07:03

Часовой пояс: GMT + 4



Вы не можете начинать темы
Вы не можете отвечать на сообщения
Вы не можете редактировать свои сообщения
Вы не можете удалять свои сообщения
Вы не можете голосовать в опросах
Вы не можете прикреплять файлы к сообщениям
Вы не можете скачивать файлы