Кошмар на улице Вязов: Коллекция / A Nightmare on Elm Street Collection (: Джек Шолдер, Уэс Крэйвен, Ренни Харлин, Рейчел Тэлалей, Стивен Хопкинс, Чак Рассел, Ронни Ю) [1984-2003 г., Триллер, Ужасы, BDRip]

Ответить на тему
 
Автор
Сообщение

3232fox ®

Пол:

Стаж: 8 лет 1 месяц

Сообщений: 586

Репутация: 426 [+] [-]

Откуда: Крым,Россия

Пост 20-Ноя-2013 19:46

[Цитировать] 

-Кошмар на улице Вязов: Коллекция / A Nightmare on Elm Street Collection--Год выпуска: 1984-2003
Страна: сша
Жанр: Триллер, Ужасы,фэнтези, приключения
Перевод: Профессиональный (полное дублирование)--Режиссер: : Джек Шолдер, Уэс Крэйвен, Ренни Харлин, Рейчел Тэлалей, Стивен Хопкинс, Чак Рассел, Ронни Ю--
В ролях: Марк Паттон, Ким Майерс, Клу Гулагер, Хоуп Лэнг, Маршалл Белл, Мелинда О. Фи, Том МакФедден, Сидни Уолш, Роберт Раслер, Эдвард Блэкофф, Патриция Аркетт, Крейг Уоссон, Кен Сэйгоз, Родни Истман, Дженнифер Рубин, Бредли Грегг, Ира Хейден, Лоренс Фишбёрн, Лиза Уилкокс, Андрас Джонс, Дэнни Хэссел, Кен Кирцингер, Моника Кина, Келли Роулэнд, Джейсон Риттер, Крис Маркит, Хезер Лэнгенкэмп, Рони Блэйкли, Джон Сэксон, Аманда Уайсс, Роберт Инглунд, Джонни Депп
--Фильмы

Кошмар на улице Вязов / A Nightmare on Elm Street

--Кошмар на улице Вязов / A Nightmare on Elm Street--Год выпуска: 1984
Страна: сша
Жанр: Ужасы
Продолжительность: ~1:31:14
Перевод: Профессиональный (полное дублирование)--Режиссер: Уэс Крэйвен / Wes Craven--В ролях: Хезер Лэнгенкэмп, Рони Блейкли, Джон Сэксон, Аманда Уайсс, Роберт Инглунд, Джонни Депп, Чарльз Флайшер, Джозеф Випп, Джейсу Гарсия, Лин Шэй, Джо Ангер, Мими Крэвен, Джек Ши, Эд Колл, Сэнди Липтон, Дэвид Эндрюс, Джефф Ливайн, Донна Вудрум, Шэшони Холл, Кэрол Притикин, Брайан Риз, Эш Эдамс, Дон Ханна, Лесли Хоффман, Пол Гренье, Джон Ричард Петерсен, Антониа Янноули--Описание: Старшеклассников одной из школ Спрингвуда, преследует один и тот же кошмарный сон в котором за ними гонится и кромсает на куски изуродованный человек в шляпе и с ножами на своей перчатке. И тот, кого убили во сне — умирает в реальности… Оказывается много лет назад, герой сна — Фредди Крюгер был маньяком, совершившим несколько зверских убийств детей. Их родители, не дожидаясь суда, линчевали Фредди, спалив заживо в котельной. И теперь Фредди пришел отомстить…-- --Тип релиза: BDRip
Контейнер: MKV
Видео кодек: H264 (AVC)
Аудио кодек: AC3 (Dolby Digital)
Видео: 1920x1080, 6475 Кбит/сек, 23.976 кадр/сек, AVC, x264, 16:9
Аудио: AC-3, 384 Кбит/сек, 6 канала(ов), 48,0 КГц--

Скриншоты

MI

G:\видео\A Nightmare on Elm Street Collection_NOLIMITS-TEAM\A Nightmare on Elm Street (1984).BDRip.1080p.NOLIMITS-TEAM.mkv
General
Complete name : G:\видео\A Nightmare on Elm Street Collection_NOLIMITS-TEAM\A Nightmare on Elm Street (1984).BDRip.1080p.NOLIMITS-TEAM.mkv
Format : Matroska
File size : 4.37 GiB
Duration : 1h 31mn
Overall bit rate : 6 860 Kbps
Movie name : Rip by kozak (NOLIMITS-TEAM.RU)
Encoded date : UTC 2012-04-05 11:25:56
Writing application : mkvmerge v5.4.0 ('Piper') built on Mar 10 2012 13:34:39
Writing library : libebml v1.2.3 + libmatroska v1.3.0
Video #1
ID : 1
Format : AVC
Format/Info : Advanced Video Codec
Format profile : High@L4.1
Format settings, CABAC : Yes
Format settings, ReFrames : 4 frames
Muxing mode : Container profile=Unknown@4.1
Codec ID : V_MPEG4/ISO/AVC
Duration : 1h 31mn
Bit rate : 6 340 Kbps
Nominal bit rate : 6 475 Kbps
Width : 1 920 pixels
Height : 1 080 pixels
Display aspect ratio : 16:9
Frame rate : 23.976 fps
Resolution : 8 bits
Colorimetry : 4:2:0
Scan type : Progressive
Bits/(Pixel*Frame) : 0.128
Stream size : 4.04 GiB (92%)
Title : Кошмар на улице Вязов (1984).BDRip.1080p.NOLIMITS-TEAM
Writing library : x264 core 122 r2184 5c85e0a
Encoding settings : cabac=1 / ref=4 / deblock=1:-3:-2 / analyse=0x3:0x133 / me=umh / subme=10 / psy=1 / psy_rd=1.00:0.15 / mixed_ref=1 / me_range=32 / chroma_me=1 / trellis=2 / 8x8dct=1 / cqm=0 / deadzone=21,11 / fast_pskip=0 / chroma_qp_offset=-3 / threads=12 / sliced_threads=0 / slices=4 / nr=0 / decimate=0 / interlaced=0 / bluray_compat=0 / constrained_intra=0 / bframes=5 / b_pyramid=2 / b_adapt=2 / b_bias=0 / direct=3 / weightb=1 / open_gop=0 / weightp=2 / keyint=240 / keyint_min=24 / scenecut=40 / intra_refresh=0 / rc_lookahead=60 / rc=2pass / mbtree=1 / bitrate=6475 / ratetol=2.0 / qcomp=0.60 / qpmin=0 / qpmax=51 / qpstep=4 / cplxblur=20.0 / qblur=0.5 / ip_ratio=1.40 / aq=2:1.00
Audio #2
ID : 2
Format : AC-3
Format/Info : Audio Coding 3
Format_Settings_ModeExtension : CM (complete main)
Codec ID : A_AC3
Duration : 1h 31mn
Bit rate mode : Constant
Bit rate : 384 Kbps
Channel(s) : 6 channels
Channel positions : Front: L C R, Side: L R, LFE
Sampling rate : 48.0 KHz
Stream size : 251 MiB (6%)
Title : Многоголосый закадровый.Киномания
Language : Russian
Text #3
ID : 3
Format : UTF-8
Codec ID : S_TEXT/UTF8
Codec ID/Info : UTF-8 Plain Text
Title : full
Language : Russian
Text #4
ID : 4
Format : UTF-8
Codec ID : S_TEXT/UTF8
Codec ID/Info : UTF-8 Plain Text
Title : full
Language : Russian
Text #5
ID : 5
Format : UTF-8
Codec ID : S_TEXT/UTF8
Codec ID/Info : UTF-8 Plain Text
Title : full

Кошмар на улице Вязов 2: Месть Фредди / A Nightmare on Elm Street Part 2: Freddy's Revenge

-Кошмар на улице Вязов 2: Месть Фредди / A Nightmare on Elm Street Part 2: Freddy's Revenge--Год выпуска: 1985
Страна: сша
Жанр: Ужасы
Продолжительность: ~ 01:25:34
Перевод: Профессиональный (полное дублирование)--Режиссер: Джек Шолдер / Jack Sholder--В ролях: Марк Паттон, Ким Майерс, Клу Гулагер, Хоуп Лэнг, Маршалл Белл, Мелинда О. Фи, Том МакФедден, Сидни Уолш, Роберт Раслер, Эдвард Блэкофф--Описание: Спустя пять лет в дом, где подростков преследовали кошмары с кровавым убийцей, въезжает новая семья, ничего не подозревающая о дурной славе этого коттеджа. Фрэдди Крюгер вновь возникает в снах юного Джесси Уэлма и пытается завладеть не только его мозгом, но и телом. Подружка Джесси, Лиза, надеется помочь ему избавиться от навязчивого видения. Замечательные спецэффекты и пиротехника обеспечили фильму кассовый успех.-- --Тип релиза: BDRip
Контейнер: MKV
Видео кодек: H264 (AVC)
Аудио кодек: AC3 (Dolby Digital)
Видео: 1920x1080, 6475 Кбит/сек, 23.976 кадр/сек, AVC, x264, 16:9
Аудио: AC-3, 384 Кбит/сек, 6 канала(ов), 48,0 КГц--

Скриншоты

MI

G:\видео\A Nightmare on Elm Street Collection_NOLIMITS-TEAM\A Nightmare on Elm Street 2. Freddy's Revenge (1985).BDRip.1080p.NOLIMITS-TEAM.mkv
General
Complete name : G:\видео\A Nightmare on Elm Street Collection_NOLIMITS-TEAM\A Nightmare on Elm Street 2. Freddy's Revenge (1985).BDRip.1080p.NOLIMITS-TEAM.mkv
Format : Matroska
File size : 4.37 GiB
Duration : 1h 25mn
Overall bit rate : 7 306 Kbps
Movie name : Rib by kozak (NOLIMITS-TEAM.RU)
Encoded date : UTC 2012-04-05 12:05:28
Writing application : mkvmerge v5.4.0 ('Piper') built on Mar 10 2012 13:34:39
Writing library : libebml v1.2.3 + libmatroska v1.3.0
Video #1
ID : 1
Format : AVC
Format/Info : Advanced Video Codec
Format profile : High@L4.1
Format settings, CABAC : Yes
Format settings, ReFrames : 4 frames
Muxing mode : Container profile=Unknown@4.1
Codec ID : V_MPEG4/ISO/AVC
Duration : 1h 25mn
Bit rate : 6 777 Kbps
Nominal bit rate : 6 925 Kbps
Width : 1 920 pixels
Height : 1 080 pixels
Display aspect ratio : 16:9
Frame rate : 23.976 fps
Resolution : 8 bits
Colorimetry : 4:2:0
Scan type : Progressive
Bits/(Pixel*Frame) : 0.136
Stream size : 4.05 GiB (93%)
Title : Кошмар на улице Вязов 2: Месть Фредди (1985).BDRip.1080p.NOLIMITS-TEAM
Writing library : x264 core 122 r2184 5c85e0a
Encoding settings : cabac=1 / ref=4 / deblock=1:-3:-2 / analyse=0x3:0x133 / me=umh / subme=11 / psy=1 / psy_rd=1.00:0.15 / mixed_ref=1 / me_range=32 / chroma_me=1 / trellis=2 / 8x8dct=1 / cqm=0 / deadzone=21,11 / fast_pskip=0 / chroma_qp_offset=-3 / threads=12 / sliced_threads=0 / slices=4 / nr=0 / decimate=0 / interlaced=0 / bluray_compat=0 / constrained_intra=0 / bframes=5 / b_pyramid=2 / b_adapt=2 / b_bias=0 / direct=3 / weightb=1 / open_gop=0 / weightp=2 / keyint=240 / keyint_min=24 / scenecut=40 / intra_refresh=0 / rc_lookahead=60 / rc=2pass / mbtree=1 / bitrate=6925 / ratetol=2.0 / qcomp=0.60 / qpmin=0 / qpmax=51 / qpstep=4 / cplxblur=20.0 / qblur=0.5 / ip_ratio=1.40 / aq=2:1.00
Audio #2
ID : 2
Format : AC-3
Format/Info : Audio Coding 3
Format_Settings_ModeExtension : CM (complete main)
Codec ID : A_AC3
Duration : 1h 25mn
Bit rate mode : Constant
Bit rate : 384 Kbps
Channel(s) : 6 channels
Channel positions : Front: L C R, Side: L R, LFE
Sampling rate : 48.0 KHz
Stream size : 235 MiB (5%)
Title : Многоголосый закадровый.Киномания
Language : Russian
Text #3
ID : 3
Format : UTF-8
Codec ID : S_TEXT/UTF8
Codec ID/Info : UTF-8 Plain Text
Title : full
Language : Russian
Text #4
ID : 4
Format : UTF-8
Codec ID : S_TEXT/UTF8
Codec ID/Info : UTF-8 Plain Text
Title : full
Language : Russian

Кошмар на улице Вязов 3: Воины сна / A Nightmare on Elm Street 3: Dream Warriors

-Кошмар на улице Вязов 3: Воины сна / A Nightmare on Elm Street 3: Dream Warriors--Год выпуска: 1987
Страна: сша
Жанр: Триллер, Ужасы
Продолжительность: ~01:36:31
Перевод: Профессиональный (полное дублирование)--Режиссер: Чак Рассел / Chuck Russell--В ролях: Хезер Лэнгенкэмп, Роберт Инглунд, Патриция Аркетт, Крейг Уоссон, Кен Сэйгоз, Родни Истман, Дженнифер Рубин, Брэдли Грегг, Ира Хейден, Лоренс Фишбёрн--Описание: события происходят через шесть лет после первого появления Фредди Крюгера. Он стал намного сильнее, подпитываясь душами детей с улицы Вязов. Теперь он обратил внимание на семерых подростков, заключенных в психиатрической лечебнице. Положение усугубляется повальными «самоубийствами», которые, разумеется, являются проделками Фредди. Разрешить ситуацию и объяснить, что происходит, может лишь Нэнси Томпсон, которая вернулась в родной город в качестве врача-практиканта...-- --Тип релиза: BDRip
Контейнер: MKV
Видео кодек: H264 (AVC)
Аудио кодек: AC3 (Dolby Digital)
Видео: 1920x1080, 6475 Кбит/сек, 23.976 кадр/сек, AVC, x264, 16:9
Аудио: AC-3, 384 Кбит/сек, 6 канала(ов), 48,0 КГц--

Скриншоты

MI

G:\видео\A Nightmare on Elm Street Collection_NOLIMITS-TEAM\A Nightmare on Elm Street 3. Dream Warriors (1987).BDRip.1080p.NOLIMITS-TEAM.mkv
General
Complete name : G:\видео\A Nightmare on Elm Street Collection_NOLIMITS-TEAM\A Nightmare on Elm Street 3. Dream Warriors (1987).BDRip.1080p.NOLIMITS-TEAM.mkv
Format : Matroska
File size : 4.37 GiB
Duration : 1h 36mn
Overall bit rate : 6 479 Kbps
Movie name : Rip by kozak (NOLIMITS-TEAM.RU)
Encoded date : UTC 2012-05-21 12:49:18
Writing application : mkvmerge v5.5.0 ('Healer') built on Apr 6 2012 21:43:24
Writing library : libebml v1.2.3 + libmatroska v1.3.0
Video #1
ID : 1
Format : AVC
Format/Info : Advanced Video Codec
Format profile : High@L4.1
Format settings, CABAC : Yes
Format settings, ReFrames : 4 frames
Muxing mode : Container profile=Unknown@4.1
Codec ID : V_MPEG4/ISO/AVC
Duration : 1h 36mn
Bit rate : 5 966 Kbps
Nominal bit rate : 6 100 Kbps
Width : 1 920 pixels
Height : 1 080 pixels
Display aspect ratio : 16:9
Frame rate : 23.976 fps
Resolution : 8 bits
Colorimetry : 4:2:0
Scan type : Progressive
Bits/(Pixel*Frame) : 0.120
Stream size : 4.02 GiB (92%)
Title : Кошмар на улице Вязов 3: Воины сна (1987).BDRip.1080p.NOLIMITS-TEAM.mkv
Writing library : x264 core 122 r2184 5c85e0a
Encoding settings : cabac=1 / ref=4 / deblock=1:-3:-2 / analyse=0x3:0x133 / me=umh / subme=11 / psy=1 / psy_rd=1.00:0.15 / mixed_ref=1 / me_range=32 / chroma_me=1 / trellis=2 / 8x8dct=1 / cqm=0 / deadzone=21,11 / fast_pskip=0 / chroma_qp_offset=-3 / threads=12 / sliced_threads=0 / slices=4 / nr=0 / decimate=0 / interlaced=0 / bluray_compat=0 / constrained_intra=0 / bframes=5 / b_pyramid=2 / b_adapt=2 / b_bias=0 / direct=3 / weightb=1 / open_gop=0 / weightp=2 / keyint=240 / keyint_min=24 / scenecut=40 / intra_refresh=0 / rc_lookahead=60 / rc=2pass / mbtree=1 / bitrate=6100 / ratetol=2.0 / qcomp=0.60 / qpmin=0 / qpmax=51 / qpstep=4 / cplxblur=20.0 / qblur=0.5 / ip_ratio=1.40 / aq=2:1.00
Audio #2
ID : 2
Format : AC-3
Format/Info : Audio Coding 3
Format_Settings_ModeExtension : CM (complete main)
Codec ID : A_AC3
Duration : 1h 36mn
Bit rate mode : Constant
Bit rate : 384 Kbps
Channel(s) : 6 channels
Channel positions : Front: L C R, Side: L R, LFE
Sampling rate : 48.0 KHz
Stream size : 265 MiB (6%)
Title : Многоголосый закадровый, Киномания
Language : Russian
Text #3
ID : 3
Format : UTF-8
Codec ID : S_TEXT/UTF8
Codec ID/Info : UTF-8 Plain Text
Title : FULL
Language : Russian
Text #4
ID : 4
Format : UTF-8
Codec ID : S_TEXT/UTF8
Codec ID/Info : UTF-8 Plain Text
Title : FULL

Кошмар на улице Вязов 4: Повелитель сна / A Nightmare on Elm Street 4: The Dream Master

--Кошмар на улице Вязов 4: Повелитель сна / A Nightmare on Elm Street 4: The Dream Master--Год выпуска: 1988
Страна: сша
Жанр: Триллер, Ужасы,фэнтези
Продолжительность: ~01:33:21
Перевод: Профессиональный (полное дублирование)--Режиссер: Ренни Харлин / Renny Harlin--В ролях: Роберт Инглунд, Кен Сэйгоз, Родни Истман, Лиза Уилкокс, Андрас Джонс, Дэнни Хэссел, Брук Тэйсс, Той Ньюкирк, Тьюзди Найт, Николас Меле--Описание: маленькая собачка, писающая огненным пламенем на могилу Фредди во сне одного из героев, оживляет этого Повелителя снов. С радостью он начинает убивать выживших героев предыдущей части, в свое время оказавших ему достойное сопротивление. Казалось, он останется непобедимым и ужасным Кошмаром улицы Вязов. Но Фредди просчитался: за мгновение до своего ухода в мир иной, Кристен, последний отпрыск с улицы Вязов, успевает передать свою уникальную способность заманивать в свои сны других людей девушке Элис...
-- --Тип релиза: BDRip
Контейнер: MKV
Видео кодек: H264 (AVC)
Аудио кодек: AC3 (Dolby Digital)
Видео: 1920x1080, 6475 Кбит/сек, 23.976 кадр/сек, AVC, x264, 16:9
Аудио: AC-3, 384 Кбит/сек, 6 канала(ов), 48,0 КГц--

Скриншоты

MI

G:\видео\A Nightmare on Elm Street Collection_NOLIMITS-TEAM\A Nightmare on Elm Street 4.The Dream Master (1988).BDrip.1080p.NOLIMITS-TEAM.mkv
General
Complete name : G:\видео\A Nightmare on Elm Street Collection_NOLIMITS-TEAM\A Nightmare on Elm Street 4.The Dream Master (1988).BDrip.1080p.NOLIMITS-TEAM.mkv
Format : Matroska
File size : 4.37 GiB
Duration : 1h 33mn
Overall bit rate : 6 702 Kbps
Movie name : Rip by kozak (NOLIMITS-TEAM.RU)
Encoded date : UTC 2012-05-21 13:44:50
Writing application : mkvmerge v5.5.0 ('Healer') built on Apr 6 2012 21:43:24
Writing library : libebml v1.2.3 + libmatroska v1.3.0
Video #1
ID : 1
Format : AVC
Format/Info : Advanced Video Codec
Format profile : High@L4.1
Format settings, CABAC : Yes
Format settings, ReFrames : 4 frames
Muxing mode : Container profile=Unknown@4.1
Codec ID : V_MPEG4/ISO/AVC
Duration : 1h 33mn
Bit rate : 6 184 Kbps
Nominal bit rate : 6 325 Kbps
Width : 1 920 pixels
Height : 1 080 pixels
Display aspect ratio : 16:9
Frame rate : 23.976 fps
Resolution : 8 bits
Colorimetry : 4:2:0
Scan type : Progressive
Bits/(Pixel*Frame) : 0.124
Stream size : 4.03 GiB (92%)
Title : Кошмар на улице Вязов 4 (1988).BDrip.1080p.NOLIMITS-TEAM
Writing library : x264 core 122 r2184 5c85e0a
Encoding settings : cabac=1 / ref=4 / deblock=1:-3:-2 / analyse=0x3:0x133 / me=umh / subme=11 / psy=1 / psy_rd=1.00:0.15 / mixed_ref=1 / me_range=32 / chroma_me=1 / trellis=2 / 8x8dct=1 / cqm=0 / deadzone=21,11 / fast_pskip=0 / chroma_qp_offset=-3 / threads=12 / sliced_threads=0 / slices=4 / nr=0 / decimate=0 / interlaced=0 / bluray_compat=0 / constrained_intra=0 / bframes=5 / b_pyramid=2 / b_adapt=2 / b_bias=0 / direct=3 / weightb=1 / open_gop=0 / weightp=2 / keyint=240 / keyint_min=24 / scenecut=40 / intra_refresh=0 / rc_lookahead=60 / rc=2pass / mbtree=1 / bitrate=6325 / ratetol=2.0 / qcomp=0.60 / qpmin=0 / qpmax=51 / qpstep=4 / cplxblur=20.0 / qblur=0.5 / ip_ratio=1.40 / aq=2:1.00
Audio #2
ID : 2
Format : AC-3
Format/Info : Audio Coding 3
Format_Settings_ModeExtension : CM (complete main)
Codec ID : A_AC3
Duration : 1h 33mn
Bit rate mode : Constant
Bit rate : 384 Kbps
Channel(s) : 6 channels
Channel positions : Front: L C R, Side: L R, LFE
Sampling rate : 48.0 KHz
Stream size : 256 MiB (6%)
Title : Многоголосый закадровый, Киномания
Language : Russian
Text #3
ID : 3
Format : UTF-8
Codec ID : S_TEXT/UTF8
Codec ID/Info : UTF-8 Plain Text
Title : FULL
Language : Russian
Text #4
ID : 4
Format : UTF-8
Codec ID : S_TEXT/UTF8
Codec ID/Info : UTF-8 Plain Text
Title : FULL

Кошмар на улице Вязов 5: Дитя сна / Nightmare On Elm Street 5: The Dream Child

-Кошмар на улице Вязов 5: Дитя сна / Nightmare On Elm Street 5: The Dream Child--Год выпуска: 1989
Страна: сша
Жанр: Ужасы
Продолжительность: ~01:26:18
Перевод: Профессиональный (полное дублирование)--Режиссер: Стивен Хопкинс / Stephen Hopkins--В ролях: Роберт Энглунд, Лиза Уилкокс, Келли Джо Минтер, Эрика Андерсон--Описание:
Продолжение знаменитого киносериала о маньяке Фредди. Не справившись с Элис в предыдущей серии, Фредди пытается проникнуть в ее организм и дает советы во снах ее развивающемуся эмбриону. Одолеть чудовище с лезвиями вместо пальцев на руке помогает общение с духом матушки Фредди - монашки, покончившей собой сразу после рождения своего демонического сына.-- --Тип релиза: BDRip
Контейнер: MKV
Видео кодек: H264 (AVC)
Аудио кодек: AC3 (Dolby Digital)
Видео: 1920x1080, 6475 Кбит/сек, 23.976 кадр/сек, AVC, x264, 16:9
Аудио: AC-3, 384 Кбит/сек, 6 канала(ов), 48,0 КГц--

Скриншоты

MI

G:\видео\A Nightmare on Elm Street Collection_NOLIMITS-TEAM\A Nightmare on Elm Street 5.The Dream Child (1989).BDrip.1080p.NOLIMITS-TEAM.mkv
General
Complete name : G:\видео\A Nightmare on Elm Street Collection_NOLIMITS-TEAM\A Nightmare on Elm Street 5.The Dream Child (1989).BDrip.1080p.NOLIMITS-TEAM.mkv
Format : Matroska
File size : 4.36 GiB
Duration : 1h 29mn
Overall bit rate : 6 966 Kbps
Movie name : Rip by kozak (NOLIMITS-TEAM.RU)
Encoded date : UTC 2012-05-21 18:11:30
Writing application : mkvmerge v5.5.0 ('Healer') built on Apr 6 2012 21:43:24
Writing library : libebml v1.2.3 + libmatroska v1.3.0
Video #1
ID : 1
Format : AVC
Format/Info : Advanced Video Codec
Format profile : High@L4.1
Format settings, CABAC : Yes
Format settings, ReFrames : 4 frames
Muxing mode : Container profile=Unknown@4.1
Codec ID : V_MPEG4/ISO/AVC
Duration : 1h 29mn
Bit rate : 6 444 Kbps
Nominal bit rate : 6 595 Kbps
Width : 1 920 pixels
Height : 1 080 pixels
Display aspect ratio : 16:9
Frame rate : 23.976 fps
Resolution : 8 bits
Colorimetry : 4:2:0
Scan type : Progressive
Bits/(Pixel*Frame) : 0.130
Stream size : 4.03 GiB (92%)
Title : Кошмар на улице Вязов 5: Дитя сна (1989).BDrip.1080p.NOLIMITS-TEAM
Writing library : x264 core 122 r2184 5c85e0a
Encoding settings : cabac=1 / ref=4 / deblock=1:-3:-2 / analyse=0x3:0x133 / me=umh / subme=11 / psy=1 / psy_rd=1.00:0.15 / mixed_ref=1 / me_range=32 / chroma_me=1 / trellis=2 / 8x8dct=1 / cqm=0 / deadzone=21,11 / fast_pskip=0 / chroma_qp_offset=-3 / threads=12 / sliced_threads=0 / slices=4 / nr=0 / decimate=0 / interlaced=0 / bluray_compat=0 / constrained_intra=0 / bframes=5 / b_pyramid=2 / b_adapt=2 / b_bias=0 / direct=3 / weightb=1 / open_gop=0 / weightp=2 / keyint=240 / keyint_min=24 / scenecut=40 / intra_refresh=0 / rc_lookahead=60 / rc=2pass / mbtree=1 / bitrate=6595 / ratetol=2.0 / qcomp=0.60 / qpmin=0 / qpmax=51 / qpstep=4 / cplxblur=20.0 / qblur=0.5 / ip_ratio=1.40 / aq=2:1.00
Audio #2
ID : 2
Format : AC-3
Format/Info : Audio Coding 3
Format_Settings_ModeExtension : CM (complete main)
Codec ID : A_AC3
Duration : 1h 29mn
Bit rate mode : Constant
Bit rate : 384 Kbps
Channel(s) : 6 channels
Channel positions : Front: L C R, Side: L R, LFE
Sampling rate : 48.0 KHz
Stream size : 246 MiB (6%)
Title : Многоголосый закадровый, Киномания
Text #3
ID : 3
Format : UTF-8
Codec ID : S_TEXT/UTF8
Codec ID/Info : UTF-8 Plain Text
Title : FULL
Language : Russian
Text #4
ID : 4
Format : UTF-8
Codec ID : S_TEXT/UTF8
Codec ID/Info : UTF-8 Plain Text
Title : FULL

Кошмар на улице Вязов 6: Фредди мертв / Freddy's Dead: The Final Nightmare

-Кошмар на улице Вязов 6: Фредди мертв / Freddy's Dead: The Final Nightmare--Год выпуска: 1991
Страна: сша
Жанр: Триллер, Ужасы,фэнтези
Продолжительность: ~01:29:17
Перевод: Профессиональный (полное дублирование)--Режиссер: Рэйчел Талалэй / Rachel Talalay--В ролях: Роберт Инглунд, Лиза Зейн, Шон Гринблатт, Лесли Дин, Рики Дин Логан, Брекин Мейер, Яфет Котто, Том Арнольд, Роузэнн, Элинор Донахью--Описание: здесь выясняются причины появления духа-изверга Фредди Крюгера, с самого начала мстившего жителям своего родного городка. С детства заброшенный всеми, Фредди вырос очень озлобленным. Его терзает мания убийства и он убивает детей, заманивая их в старую котельную. Когда суд по формальным причинам выносит маньяку оправдательный приговор, разъяренные родители жертв линчуют его.-- --Тип релиза: BDRip
Контейнер: MKV
Видео кодек: H264 (AVC)
Аудио кодек: AC3 (Dolby Digital)
Видео: 1920x1080, 6475 Кбит/сек, 23.976 кадр/сек, AVC, x264, 16:9
Аудио: AC-3, 384 Кбит/сек, 6 канала(ов), 48,0 КГц--

Скриншоты

MI

G:\видео\A Nightmare on Elm Street Collection_NOLIMITS-TEAM\Freddy vs. Jason (2003).BDrip.1080p.NOLIMITS-TEAM.mkv
General
Complete name : G:\видео\A Nightmare on Elm Street Collection_NOLIMITS-TEAM\Freddy vs. Jason (2003).BDrip.1080p.NOLIMITS-TEAM.mkv
Format : Matroska
File size : 4.36 GiB
Duration : 1h 37mn
Overall bit rate : 6 411 Kbps
Movie name : Rip by kozak (NOLIMITS-TEAM.RU)
Encoded date : UTC 2012-05-21 20:06:45
Writing application : mkvmerge v5.5.0 ('Healer') built on Apr 6 2012 21:43:24
Writing library : libebml v1.2.3 + libmatroska v1.3.0
Video #1
ID : 1
Format : AVC
Format/Info : Advanced Video Codec
Format profile : High@L4.1
Format settings, CABAC : Yes
Format settings, ReFrames : 5 frames
Muxing mode : Container profile=Unknown@4.1
Codec ID : V_MPEG4/ISO/AVC
Duration : 1h 37mn
Bit rate : 5 836 Kbps
Nominal bit rate : 5 980 Kbps
Width : 1 920 pixels
Height : 816 pixels
Display aspect ratio : 2.35:1
Original display aspect ratio : 2.35:1
Frame rate : 23.976 fps
Resolution : 8 bits
Colorimetry : 4:2:0
Scan type : Progressive
Bits/(Pixel*Frame) : 0.155
Stream size : 3.97 GiB (91%)
Title : Фредди против Джейсона (2003).BDrip.1080p.NOLIMITS-TEAM
Writing library : x264 core 124 r2197 69a0443
Encoding settings : cabac=1 / ref=5 / deblock=1:-3:-2 / analyse=0x3:0x113 / me=umh / subme=11 / psy=1 / psy_rd=1.00:0.10 / mixed_ref=1 / me_range=32 / chroma_me=1 / trellis=2 / 8x8dct=1 / cqm=0 / deadzone=21,11 / fast_pskip=0 / chroma_qp_offset=-3 / threads=12 / sliced_threads=0 / slices=4 / nr=0 / decimate=0 / interlaced=0 / bluray_compat=0 / constrained_intra=0 / bframes=5 / b_pyramid=2 / b_adapt=2 / b_bias=0 / direct=3 / weightb=1 / open_gop=0 / weightp=2 / keyint=240 / keyint_min=24 / scenecut=40 / intra_refresh=0 / rc_lookahead=60 / rc=2pass / mbtree=1 / bitrate=5980 / ratetol=2.0 / qcomp=0.60 / qpmin=0 / qpmax=51 / qpstep=4 / cplxblur=20.0 / qblur=0.5 / ip_ratio=1.40 / aq=1:1.00
Audio #2
ID : 2
Format : AC-3
Format/Info : Audio Coding 3
Format_Settings_ModeExtension : CM (complete main)
Codec ID : A_AC3
Duration : 1h 37mn
Bit rate mode : Constant
Bit rate : 448 Kbps
Channel(s) : 6 channels
Channel positions : Front: L C R, Side: L R, LFE
Sampling rate : 48.0 KHz
Stream size : 312 MiB (7%)
Title : Дубляж
Language : Russian
Text #3
ID : 3
Format : UTF-8
Codec ID : S_TEXT/UTF8
Codec ID/Info : UTF-8 Plain Text
Title : FULL
Language : Russian
Text #4
ID : 4
Format : UTF-8
Codec ID : S_TEXT/UTF8
Codec ID/Info : UTF-8 Plain Text
Title : FULL

Фредди против Джейсона / Freddy vs. Jason

-Фредди против Джейсона / Freddy vs. Jason--Год выпуска: 2003
Страна: сша
Жанр: ужасы, боевик, триллер, фэнтези, приключения
Продолжительность: ~1:37:16
Перевод: Профессиональный (полное дублирование)--Режиссер: Ронни Ю / Ronny Yu--В ролях: Роберт Инглунд, Кен Кирзингер, Моника Кеена, Джейсон Риттер, Келли Роулэнд, Крис Маркетт, Брендан Флетчер, Кэтрин Изабелль, Локлин Манро, Кайл Лэбин--Описание: Фредди Крюгер доведен до отчаяния: он больше не может убивать. Лишь используя неуклюжего серийного убийцу Джейсона Вурхиса, Фредди удается истреблять детей с улицы Вязов. Но когда Джейсон начинает понимать, что им попросту манипулируют, планы Фредди готовы рухнуть. Теперь дело за тинейджерами Уиллом, Лори и Кией. Каким-то образом им надо заставить Джейсона раз и навсегда убить Фредди Крюгера.
-- --Тип релиза: BDRip
Контейнер: MKV
Видео кодек: H264 (AVC)
Аудио кодек: AC3 (Dolby Digital)
Видео: 1920x1080, 6475 Кбит/сек, 23.976 кадр/сек, AVC, x264, 16:9
Аудио: AC-3, 384 Кбит/сек, 6 канала(ов), 48,0 КГц--

Скриншоты

MI

G:\видео\A Nightmare on Elm Street Collection_NOLIMITS-TEAM\Freddy vs. Jason (2003).BDrip.1080p.NOLIMITS-TEAM.mkv
General
Complete name : G:\видео\A Nightmare on Elm Street Collection_NOLIMITS-TEAM\Freddy vs. Jason (2003).BDrip.1080p.NOLIMITS-TEAM.mkv
Format : Matroska
File size : 4.36 GiB
Duration : 1h 37mn
Overall bit rate : 6 411 Kbps
Movie name : Rip by kozak (NOLIMITS-TEAM.RU)
Encoded date : UTC 2012-05-21 20:06:45
Writing application : mkvmerge v5.5.0 ('Healer') built on Apr 6 2012 21:43:24
Writing library : libebml v1.2.3 + libmatroska v1.3.0
Video #1
ID : 1
Format : AVC
Format/Info : Advanced Video Codec
Format profile : High@L4.1
Format settings, CABAC : Yes
Format settings, ReFrames : 5 frames
Muxing mode : Container profile=Unknown@4.1
Codec ID : V_MPEG4/ISO/AVC
Duration : 1h 37mn
Bit rate : 5 836 Kbps
Nominal bit rate : 5 980 Kbps
Width : 1 920 pixels
Height : 816 pixels
Display aspect ratio : 2.35:1
Original display aspect ratio : 2.35:1
Frame rate : 23.976 fps
Resolution : 8 bits
Colorimetry : 4:2:0
Scan type : Progressive
Bits/(Pixel*Frame) : 0.155
Stream size : 3.97 GiB (91%)
Title : Фредди против Джейсона (2003).BDrip.1080p.NOLIMITS-TEAM
Writing library : x264 core 124 r2197 69a0443
Encoding settings : cabac=1 / ref=5 / deblock=1:-3:-2 / analyse=0x3:0x113 / me=umh / subme=11 / psy=1 / psy_rd=1.00:0.10 / mixed_ref=1 / me_range=32 / chroma_me=1 / trellis=2 / 8x8dct=1 / cqm=0 / deadzone=21,11 / fast_pskip=0 / chroma_qp_offset=-3 / threads=12 / sliced_threads=0 / slices=4 / nr=0 / decimate=0 / interlaced=0 / bluray_compat=0 / constrained_intra=0 / bframes=5 / b_pyramid=2 / b_adapt=2 / b_bias=0 / direct=3 / weightb=1 / open_gop=0 / weightp=2 / keyint=240 / keyint_min=24 / scenecut=40 / intra_refresh=0 / rc_lookahead=60 / rc=2pass / mbtree=1 / bitrate=5980 / ratetol=2.0 / qcomp=0.60 / qpmin=0 / qpmax=51 / qpstep=4 / cplxblur=20.0 / qblur=0.5 / ip_ratio=1.40 / aq=1:1.00
Audio #2
ID : 2
Format : AC-3
Format/Info : Audio Coding 3
Format_Settings_ModeExtension : CM (complete main)
Codec ID : A_AC3
Duration : 1h 37mn
Bit rate mode : Constant
Bit rate : 448 Kbps
Channel(s) : 6 channels
Channel positions : Front: L C R, Side: L R, LFE
Sampling rate : 48.0 KHz
Stream size : 312 MiB (7%)
Title : Дубляж
Language : Russian
Text #3
ID : 3
Format : UTF-8
Codec ID : S_TEXT/UTF8
Codec ID/Info : UTF-8 Plain Text
Title : FULL
Language : Russian
Text #4
ID : 4
Format : UTF-8
Codec ID : S_TEXT/UTF8
Codec ID/Info : UTF-8 Plain Text
Title : FULL

Кошмар на улице Вязов 7: Новый Кошмар / New Nightmare

-Кошмар на улице Вязов 7: Новый Кошмар / New Nightmare--Год выпуска: 1994
Страна: сша
Жанр: ужасы, триллер, детектив
Продолжительность: ~01:52:07
Перевод: Профессиональный (полное дублирование)--Режиссер: Уэс Крэйвен / Wes Craven--В ролях: Хезер Лэнгенкэмп, Роберт Инглунд, Мико Хьюз, Уэс Крэйвен, Джон Сэксон, Роберт Шэй, Сара Ришер, Марианн Маддалена, Дэвид Ньюсом--Описание: На съёмках очередной серии фильма «Кошмар на улице Вязов» происходит несчастный случай: новая, технически совершенная перчатка Фредди убивает работников со спецэффектами и ранит Чейза Портера — мужа Хизер Ландженкамп, исполнительницы роли Нэнси. Сын Хизер исчезает непонятным образом. Но вот Хизер просыпается из-за землетрясения и понимает, что это был всего лишь сон. Однако её муж порезал пальцы именно так, как это случилось в её сне…
-- --Тип релиза: BDRip
Контейнер: MKV
Видео кодек: H264 (AVC)
Аудио кодек: AC3 (Dolby Digital)
Видео: 1920x1080, 6475 Кбит/сек, 23.976 кадр/сек, AVC, x264, 16:9
Аудио: AC-3, 384 Кбит/сек, 6 канала(ов), 48,0 КГц--

Скриншоты

MI

G:\видео\A Nightmare on Elm Street Collection_NOLIMITS-TEAM\New Nightmare (1994).BDrip.1080p.NOLIMITS-TEAM.mkv
General
Complete name : G:\видео\A Nightmare on Elm Street Collection_NOLIMITS-TEAM\New Nightmare (1994).BDrip.1080p.NOLIMITS-TEAM.mkv
Format : Matroska
File size : 4.36 GiB
Duration : 1h 52mn
Overall bit rate : 5 571 Kbps
Movie name : Rip by kozak (NOLIMITS-TEAM.RU)
Encoded date : UTC 2012-05-21 19:41:29
Writing application : mkvmerge v5.5.0 ('Healer') built on Apr 6 2012 21:43:24
Writing library : libebml v1.2.3 + libmatroska v1.3.0
Video #1
ID : 1
Format : AVC
Format/Info : Advanced Video Codec
Format profile : High@L4.1
Format settings, CABAC : Yes
Format settings, ReFrames : 4 frames
Muxing mode : Container profile=Unknown@4.1
Codec ID : V_MPEG4/ISO/AVC
Duration : 1h 52mn
Bit rate : 5 076 Kbps
Nominal bit rate : 5 195 Kbps
Width : 1 920 pixels
Height : 1 080 pixels
Display aspect ratio : 16:9
Frame rate : 23.976 fps
Resolution : 8 bits
Colorimetry : 4:2:0
Scan type : Progressive
Bits/(Pixel*Frame) : 0.102
Stream size : 3.98 GiB (91%)
Title : Кошмар на улице Вязов 7 (1994).BDrip.1080p.NOLIMITS-TEAM
Writing library : x264 core 122 r2184 5c85e0a
Encoding settings : cabac=1 / ref=4 / deblock=1:-3:-2 / analyse=0x3:0x133 / me=umh / subme=11 / psy=1 / psy_rd=1.00:0.15 / mixed_ref=1 / me_range=32 / chroma_me=1 / trellis=2 / 8x8dct=1 / cqm=0 / deadzone=21,11 / fast_pskip=0 / chroma_qp_offset=-3 / threads=12 / sliced_threads=0 / slices=4 / nr=0 / decimate=0 / interlaced=0 / bluray_compat=0 / constrained_intra=0 / bframes=5 / b_pyramid=2 / b_adapt=2 / b_bias=0 / direct=3 / weightb=1 / open_gop=0 / weightp=2 / keyint=240 / keyint_min=24 / scenecut=40 / intra_refresh=0 / rc_lookahead=60 / rc=2pass / mbtree=1 / bitrate=5195 / ratetol=2.0 / qcomp=0.60 / qpmin=0 / qpmax=51 / qpstep=4 / cplxblur=20.0 / qblur=0.5 / ip_ratio=1.40 / aq=2:1.00
Audio #2
ID : 2
Format : AC-3
Format/Info : Audio Coding 3
Format_Settings_ModeExtension : CM (complete main)
Codec ID : A_AC3
Duration : 1h 52mn
Bit rate mode : Constant
Bit rate : 384 Kbps
Channel(s) : 6 channels
Channel positions : Front: L C R, Side: L R, LFE
Sampling rate : 48.0 KHz
Stream size : 308 MiB (7%)
Title : Многоголосый закадровый, Киномания
Language : Russian
Text #3
ID : 3
Format : UTF-8
Codec ID : S_TEXT/UTF8
Codec ID/Info : UTF-8 Plain Text
Title : FULL
Language : Russian
Text #4
ID : 4
Format : UTF-8
Codec ID : S_TEXT/UTF8
Codec ID/Info : UTF-8 Plain Text
Title : FULL


Последний раз редактировалось: 3232fox (2013-11-21 23:04), всего редактировалось 14 раз(а)
[Торрент-статистика]
[Профиль]  [ЛС] 

Сфинксик

Пол:

Стаж: 7 лет 11 месяцев

Сообщений: 1546

Репутация: 1042 [+] [-]

Откуда: г.Раменское

Пост 20-Ноя-2013 20:20 (спустя 33 минуты)

[Цитировать] 

Врятли кто будет сажать рейтинг по такому обьему да и фильм избитый ab
Темболее самые крутые и популярные серии 1.2.3 а потом..... ab

_________________
ЕСЛИ НЕТ СИДОВ НА РАЗДАЧЕ СТУЧИТЕ В ЛИЧКУ В ТЕЧЕНИИ СУТОК ВОССТАНОВЛЮ!!!!
[Торрент-статистика]
[Профиль]  [ЛС] 

ArtZak

Пол:

Стаж: 9 лет 5 месяцев

Сообщений: 2829

Репутация: 1366 [+] [-]

Откуда: Россия

Пост 20-Ноя-2013 21:39 (спустя 1 час 19 минут)

[Цитировать] 

38033Врятли кто будет сажать рейтинг по такому обьему
золото - рейтинг считать не будет.
3232fox, надо бы инфу по каждому фильму выложить (как в фильмографиях) - http://brodim.com/viewforum.php?f=516.
Те что мои - там все в идеале в плане инфы по кино.
[Торрент-статистика]
[Профиль]  [ЛС] 

Сфинксик

Пол:

Стаж: 7 лет 11 месяцев

Сообщений: 1546

Репутация: 1042 [+] [-]

Откуда: г.Раменское

Пост 20-Ноя-2013 22:01 (спустя 22 минуты)

[Цитировать] 

38040золото - рейтинг считать не будет.
Ну с рейтингом может я погорячился, а с местом на винтах ab я знаю у людей еще 120ки стоят ab

_________________
ЕСЛИ НЕТ СИДОВ НА РАЗДАЧЕ СТУЧИТЕ В ЛИЧКУ В ТЕЧЕНИИ СУТОК ВОССТАНОВЛЮ!!!!
[Торрент-статистика]
[Профиль]  [ЛС] 

3232fox ®

Пол:

Стаж: 8 лет 1 месяц

Сообщений: 586

Репутация: 426 [+] [-]

Откуда: Крым,Россия

Пост 20-Ноя-2013 22:19 (спустя 18 минут)

[Цитировать] 

38040
38033Врятли кто будет сажать рейтинг по такому обьему
золото - рейтинг считать не будет.
3232fox, надо бы инфу по каждому фильму выложить (как в фильмографиях) - http://brodim.com/viewforum.php?f=516.
Те что мои - там все в идеале в плане инфы по кино.
займусь сейчас
[Торрент-статистика]
[Профиль]  [ЛС] 

3232fox ®

Пол:

Стаж: 8 лет 1 месяц

Сообщений: 586

Репутация: 426 [+] [-]

Откуда: Крым,Россия

Пост 21-Ноя-2013 02:32 (спустя 4 часа)

[Цитировать] 

ArtZak, Вот,что вышло,3 часа делал,надеюсь пойдёт
[Торрент-статистика]
[Профиль]  [ЛС] 

ArtZak

Пол:

Стаж: 9 лет 5 месяцев

Сообщений: 2829

Репутация: 1366 [+] [-]

Откуда: Россия

Пост 21-Ноя-2013 02:41 (спустя 9 минут)

[Цитировать] 

38055Вот,что вышло,3 часа делал,надеюсь пойдёт
Отлично!
[Торрент-статистика]
[Профиль]  [ЛС] 
Показать сообщения:    
Ответить на тему

Текущее время: Сегодня 10:47

Часовой пояс: GMT + 4



Вы не можете начинать темы
Вы не можете отвечать на сообщения
Вы не можете редактировать свои сообщения
Вы не можете удалять свои сообщения
Вы не можете голосовать в опросах
Вы не можете прикреплять файлы к сообщениям
Вы не можете скачивать файлы