Видок / Vidocq (Питоф) [2001 г., Триллер, криминал, детектив, фэнтези, BDRip]

Ответить на тему
 
Автор
Сообщение

3232fox ®

Пол:

Стаж: 4 года 8 месяцев

Сообщений: 614

Репутация: 423 [+] [-]

Откуда: Крым,Россия

Пост 17-Ноя-2013 01:31

[Цитировать] 

-Видок / Vidocq--
Год выпуска: 2001
Страна: Франция
Жанр: Триллер, криминал, детектив, фэнтези
Продолжительность: ~1:37
Перевод: Профессиональный (полное дублирование)--Режиссер: Питоф--В ролях: Жерар Депардье, Гийом Кане, Инес Састре, Андре Дюссолье, Эдит Скоб, Мусса Мааскри, Жан-Пьер Гос, Изабель Рено, Жан-Поль Дюбуа, Андре Пенверн
--Описание: Париж ХIХ века охвачен паникой. В его «чреве» завелся серийный убийца, которого может вычислить только гениальный сыщик Видок. Реальный исторический персонаж, не знающий удержу — особенно в исполнении громоподобного Депардье — ни в своих перевоплощениях, ни в дьявольской интуиции. Он мчится по следу загадочного Алхимика. Волшебные декорации города, который разрывают вспышки молний, потайные двери, одуряющие наркотическим безумием, в хитроумную лабораторию, где кружится голова.-- --Тип релиза: BDRip
Контейнер: MKV
Видео кодек: H264 (AVC)
Аудио кодек: AC3 (Dolby Digital)
Видео: 1280 x 704; 23.976 fps; 5835 kbps; 0.270 bit/pixel
Аудио: Russian AC3 Dolby Digital; 448 kbps; 5.1 ch; 48 kHz--

Доп. информация

Фильм крайне вольно использует факты жизни реального сыщика Эжена-Франсуа Видока (1775-1857), который был вором, а после превратился в знаменитейшего частного детектива, своего рода французский аналог Ната Пинкертона.

Скриншоты

MI

G:\видео\Vidok.2001.RUS.BDRip.720p.h264.AC3.-HQ-ViDEO.mkv
General
Complete name : G:\видео\Vidok.2001.RUS.BDRip.720p.h264.AC3.-HQ-ViDEO.mkv
Format : Matroska
File size : 4.37 GiB
Duration : 1h 37mn
Overall bit rate : 6 410 Kbps
Movie name : Vidocq (2001)
Encoded date : UTC 2011-07-28 10:15:29
Writing application : mkvmerge v3.3.0 ('Language') built on Mar 24 2010 14:59:24
Writing library : libebml v0.8.0 + libmatroska v0.9.0
Video #1
ID : 1
Format : AVC
Format/Info : Advanced Video Codec
Codec ID : V_MPEG4/ISO/AVC
Duration : 1h 37mn
Bit rate : 5 835 Kbps
Width : 1 280 pixels
Height : 704 pixels
Display aspect ratio : 16:9
Frame rate : 23.976 fps
Bits/(Pixel*Frame) : 0.270
Stream size : 3.98 GiB (91%)
Title : Encoded by GYN
Audio #2
ID : 2
Format : AC-3
Format/Info : Audio Coding 3
Format_Settings_ModeExtension : CM (complete main)
Codec ID : A_AC3
Duration : 1h 37mn
Bit rate mode : Constant
Bit rate : 448 Kbps
Channel(s) : 6 channels
Channel positions : Front: L C R, Side: L R, LFE
Sampling rate : 48.0 KHz
Stream size : 313 MiB (7%)
Title : DUB
Language : Russian
Text #3
ID : 3
Format : UTF-8
Codec ID : S_TEXT/UTF8
Codec ID/Info : UTF-8 Plain Text
Language : Russian
Text #4
ID : 4
Format : UTF-8
Codec ID : S_TEXT/UTF8
Codec ID/Info : UTF-8 Plain Text
Language : English


Последний раз редактировалось: 3232fox (2013-11-17 19:26), всего редактировалось 1 раз
[Торрент-статистика]
[Профиль]  [ЛС] 

ArtZak

Пол:

Стаж: 6 лет

Сообщений: 2996

Репутация: 1363 [+] [-]

Откуда: Россия

Пост 17-Ноя-2013 01:36 (спустя 4 минуты)

[Цитировать] 

Неплохо было бы добавить:
Код:
[url=http://www.kinopoisk.ru/film/872/][img]http://rating.kinopoisk.ru/872.gif[/img][/url]
[Торрент-статистика]
[Профиль]  [ЛС] 

3232fox ®

Пол:

Стаж: 4 года 8 месяцев

Сообщений: 614

Репутация: 423 [+] [-]

Откуда: Крым,Россия

Пост 17-Ноя-2013 19:27 (спустя 17 часов)

[Цитировать] 

37852Неплохо было бы добавить:
Код:
[url=http://www.kinopoisk.ru/film/872/][img]http://rating.kinopoisk.ru/872.gif[/img][/url]
Добавил aaСпасибо
[Торрент-статистика]
[Профиль]  [ЛС] 
Показать сообщения:    
Ответить на тему

Текущее время: Сегодня 04:08

Часовой пояс: GMT + 4



Вы не можете начинать темы
Вы не можете отвечать на сообщения
Вы не можете редактировать свои сообщения
Вы не можете удалять свои сообщения
Вы не можете голосовать в опросах
Вы не можете прикреплять файлы к сообщениям
Вы не можете скачивать файлы