Штурм Белого дома / White House Down (Роланд Эммерих) [2013 г., Боевик, драма, Blu-Ray Remux (1080p)] DUB лицензия

Ответить на тему
 
Автор
Сообщение

sergei78 ®

Пол:

Стаж: 3 года 10 месяцев

Сообщений: 92

Репутация: 120 [+] [-]

Откуда: Бывший СССР: "Связист Кстово 100/40"

Пост 14-Окт-2013 00:14

[Цитировать] 

Штурм Белого дома / White House DownГод выпуска: 2013
Страна: США, Centropolis Entertainment, Iron Horse Entertainment, Mythology Entertainment
Жанр: Боевик, драма
Продолжительность: 02:11:32
Перевод: Профессиональный (полное дублирование)[лицензия]
Режиссер: Роланд Эммерих
В ролях: Ченнинг Татум, Джои Кинг, Джеймс Вудс, Джейсон Кларк, Джейми Фокс, Мэгги Джилленхол, Рашель Лефевр, Лэнс Реддик, Джимми Симпсон, Лэнс Реддик, Ричард Дженкинс
Описание: Если вы не прошли интервью для того, чтобы попасть в охрану к президенту, не отчаивайтесь, у вас есть шанс на экскурсию по Белому Дому. Чтобы улучшить свои шаткие отношения с дочерью, Кэйл выпрашивает 2 билета для этой экскурсии. Кто же мог предвидеть, что в окружении президента завелась "крыса". Здесь Кэйл и сумел проявить свое мужество в спасении президента Соера и маленькой Эмили. В фильме есть и комические моменты: три президента за один фильм, гонки на президентском лимузине вокруг фонтана по лужайке Белого дома, действия самого президента иногда заставляют улыбнутся, как всегда, не обошлось без русских и конечно вы найдете ответ на вопрос, есть ли в Белом Доме секретный туннель. И в завершении для того, чтобы узнать как девочка спасла Белый Дом от разрушений, вам надо посмотреть этот фильм.

Тип релиза: Blu-Ray Remux (1080p)
Контейнер: MKV
Видео кодек: H264 (AVC)
Аудио кодек: AC3, DTS
Видео: MPEG-4 AVC, 24.8 Мбит/с, 1920x1080, 23.976 кадр/с
Аудио 1 Русский : AC3, 6 ch, 640 Кбит/с,
Аудио 2 Украинский: AC3, 6 ch, 640 Кбит/с
Аудио 3 английский: DTS-HD МА, 6 ch, 2258 Кбит/с
Субтитры: Русские

Скриншоты

Mi

General
Unique ID : 191435362604265270114676755614338120093 (0x90051C16F70B1D08A27D723228A7F99D)
Complete name : N:DATASchturm.belogo.doma.2013.MPEG-4-AVC.BluRay-Remux(1080p).mkv
Format : Matroska
Format version : Version 4 / Version 2
File size : 26.1 GiB
Duration : 2h 11mn
Overall bit rate mode : Variable
Overall bit rate : 28.4 Mbps
Movie name : --SCHUMAHER--
Encoded date : UTC 2010-02-22 21:41:31
Writing application : mkvmerge v5.9.0 ('On The Loose') built on Dec 9 2012 15:37:01
Writing library : libebml v1.3.0 + libmatroska v1.4.0
Video
ID : 1
Format : AVC
Format/Info : Advanced Video Codec
Format profile : High@L4.1
Format settings, CABAC : Yes
Format settings, ReFrames : 2 frames
Codec ID : V_MPEG4/ISO/AVC
Duration : 2h 11mn
Bit rate mode : Variable
Width : 1 920 pixels
Height : 1 080 pixels
Display aspect ratio : 16:9
Frame rate mode : Constant
Frame rate : 23.976 fps
Color space : YUV
Chroma subsampling : 4:2:0
Bit depth : 8 bits
Scan type : Progressive
Language : English
Default : Yes
Forced : Yes
Audio #1
ID : 2
Format : AC-3
Format/Info : Audio Coding 3
Mode extension : CM (complete main)
Format settings, Endianness : Big
Codec ID : A_AC3
Duration : 2h 11mn
Bit rate mode : Constant
Bit rate : 640 Kbps
Channel(s) : 6 channels
Channel positions : Front: L C R, Side: L R, LFE
Sampling rate : 48.0 KHz
Bit depth : 16 bits
Compression mode : Lossy
Stream size : 602 MiB (2%)
Language : Russian
Default : Yes
Forced : Yes
Audio #2
ID : 3
Format : AC-3
Format/Info : Audio Coding 3
Mode extension : CM (complete main)
Format settings, Endianness : Big
Codec ID : A_AC3
Duration : 2h 11mn
Bit rate mode : Constant
Bit rate : 640 Kbps
Channel(s) : 6 channels
Channel positions : Front: L C R, Side: L R, LFE
Sampling rate : 48.0 KHz
Bit depth : 16 bits
Compression mode : Lossy
Stream size : 602 MiB (2%)
Language : Ukrainian
Default : No
Forced : No
Audio #3
ID : 4
Format : DTS
Format/Info : Digital Theater Systems
Format profile : MA / Core
Mode : 16
Format settings, Endianness : Big
Codec ID : A_DTS
Duration : 2h 11mn
Bit rate mode : Variable
Bit rate : Unknown / 1 509 Kbps
Channel(s) : 6 channels
Channel positions : Front: L C R, Side: L R, LFE
Sampling rate : 48.0 KHz
Bit depth : 16 bits
Compression mode : Lossless / Lossy
Language : English
Default : No
Forced : No
Text
ID : 5
Format : UTF-8
Codec ID : S_TEXT/UTF8
Codec ID/Info : UTF-8 Plain Text
Language : Russian
Default : No
Forced : No
Menu
00:00:00.000 : en:00:00:00.000
00:06:39.774 : en:00:06:39.774
00:15:18.835 : en:00:15:18.835
00:21:37.838 : en:00:21:37.838
00:30:10.809 : en:00:30:10.809
00:37:47.348 : en:00:37:47.348
00:45:51.207 : en:00:45:51.207
00:51:12.278 : en:00:51:12.278
00:59:55.133 : en:00:59:55.133
01:07:08.942 : en:01:07:08.942
01:14:42.853 : en:01:14:42.853
01:24:13.590 : en:01:24:13.590
01:29:53.805 : en:01:29:53.805
01:37:27.717 : en:01:37:27.717
01:44:36.562 : en:01:44:36.562
01:54:17.851 : en:01:54:17.851
Штурм Белого дома / White House Down (Роланд Эммерих) [2013 г., Боевик, Триллер, HDRip][L]
Штурм Белого дома / White House Down (Роланд Эммерих / Roland Emmerich) [2013, США, Боевик, триллер, BDRip] Dub
[Торрент-статистика]
[Профиль]  [ЛС] 

sergei78 ®

Пол:

Стаж: 3 года 10 месяцев

Сообщений: 92

Репутация: 120 [+] [-]

Откуда: Бывший СССР: "Связист Кстово 100/40"

Пост 14-Окт-2013 00:58 (спустя 44 минуты)

[Цитировать] 

Только что поглядел этот фильм.
Фильм классный, жалко в 3D не сделали, шикарные 3Д эффекты были бы.
[Торрент-статистика]
[Профиль]  [ЛС] 
Показать сообщения:    
Ответить на тему

Текущее время: Сегодня 09:40

Часовой пояс: GMT + 4



Вы не можете начинать темы
Вы не можете отвечать на сообщения
Вы не можете редактировать свои сообщения
Вы не можете удалять свои сообщения
Вы не можете голосовать в опросах
Вы не можете прикреплять файлы к сообщениям
Вы не можете скачивать файлы