Супермен 4: В поисках мира / Superman IV: The Quest for Peace (Сидни Дж. Фьюри / Sidney J. Furie) [1987, Великобритания, США, фантастика, приключения, BDRip 1080p] MVO (ТВ3) + MVO (ТВЦ) + VO (ANTipiGo) + VO (Rihard88) + Original Eng + Sub (Rus, Eng)

Ответить на тему
 
Автор
Сообщение

sergei78 ®

Пол:

Стаж: 4 года 1 месяц

Сообщений: 92

Репутация: 120 [+] [-]

Откуда: Бывший СССР: "Связист Кстово 100/40"

Пост 24-Сен-2013 10:16

[Цитировать] 

-Супермен 4: В поисках мира / Superman IV: The Quest for Peace Год выпуска: 1987
Страна: Великобритания, США
Жанр: фантастика, фэнтези, боевик, приключения, семейный
Продолжительность: 01:29:52
Перевод 1: Профессиональный (многоголосый, закадровый) - [ТВ3]
Перевод 2: Профессиональный (многоголосый закадровый) - [ТВЦ]
Перевод 3: Любительский (одноголосый закадровый) - [ANTipiGo]
Перевод 4: Любительский (одноголосый закадровый) - [Rihard88]-Режиссер: Сидни Дж. Фьюри / Sidney J. Furie-В ролях: Кристофер Рив, Джин Хэкмен, Джекки Купер, Марк МакКлюр, Джон Крайер, Сэм Уонамейкер, Марк Пиллоу, Мэриэл Хемингуэй, Марго Киддер, Дэмиэн МакЛохорн, Уильям Хуткинс, Джим Бродбент, Стэнли Лебор, Дон Феллоуз, Роберт Битти, Брэдли Лэвэлл, Мак МакДональд, Чеслав Грочольски, Стив Плайтас, Джон Холлис, Джейн Брук, Тед Мэйнард, Марк Кавен и др.-Описание: «Супермен 4: В поисках мира» — четвертая часть в серии фильмов о Супермене и последний фильм о данном супергерое, роль которого сыграл актер Кристофер Рив.
Лекс Лютер создал клона Супермена — его антипода, злого монстра Ядерного человека, поддерживающего энергию от солнца. Супермену предстоит вступить в жестокую схватку с противником, а так же уничтожить все ядерное оружие, которое угрожает миру за Земле. Помимо спасения человечества, Супермен не забывает и про личную жизнь, в которой так же решает насущные вопросы.- -Тип релиза: BDRip 1080р
Контейнер: MKV
Видео кодек: H264 (AVC)
Аудио кодек: AC3 (Dolby Digital)
Видео: H.264, 1920x800 (2.40:1), 23.976 fps, ~11.7 Mbps, 0.318 bit/pixel
Аудио 1: Аудио #1: 48 kHz, AC3 Dolby Digital, 2/0 (L,R) ch, ~192.00 kbps | Rus | MVO • ТВ3
Аудио 2: 48 kHz, AC3 Dolby Digital, 2/0 (L,R) ch, ~192.00 kbps | Rus | MVO • ТВЦ
Аудио 3: 48 kHz, AC3 Dolby Digital, 2/0 (L,R) ch, ~192.00 kbps | Rus | VO • ANTipiGo
Аудио 4: 48 kHz, AC3 Dolby Digital, 2/0 (L,R) ch, ~192.00 kbps | Rus | VO • Rihard88
Аудио 5: 48 kHz, AC3 Dolby Digital, 2/0 (L,R) ch, ~192.00 kbps | Eng | Origina
Формат субтитров: softsub (SRT)-

Скриншоты

-

MediaInfo

Код:
General
Unique ID                                : 195999633838375201428915422609644188874 (0x9374280929E45479A075CD9F9903F4CA)
Complete name                            : Superman.IV.The.Quest.for.Peace.1987.BDRip.1080p.H.264.4xRUS+ENG.-ANTipiGo.mkv
Format                                   : Matroska
Format version                           : Version 2
File size                                : 7.95 GiB
Duration                                 : 1h 29mn
Overall bit rate                         : 12.7 Mbps
Movie name                               : Супермен 4: В поисках мира / Superman IV: The Quest for Peace / 1987 [Релиз от: ANTipiGo]
Encoded date                             : UTC 2013-07-18 14:42:45
Writing application                      : mkvmerge v5.2.1 ('A Far Off Place') built on Jan  2 2012 23:21:10
Writing library                          : libebml v1.2.3 + libmatroska v1.3.0
Video
ID                                       : 1
Format                                   : AVC
Format/Info                              : Advanced Video Codec
Format profile                           : High@L4.1
Format settings, CABAC                   : Yes
Format settings, ReFrames                : 5 frames
Codec ID                                 : V_MPEG4/ISO/AVC
Duration                                 : 1h 29mn
Bit rate                                 : 11.7 Mbps
Width                                    : 1 920 pixels
Height                                   : 800 pixels
Display aspect ratio                     : 2.40:1
Frame rate mode                          : Constant
Frame rate                               : 23.976 fps
Color space                              : YUV
Chroma subsampling                       : 4:2:0
Bit depth                                : 8 bits
Scan type                                : Progressive
Bits/(Pixel*Frame)                       : 0.318
Stream size                              : 7.19 GiB (90%)
Writing library                          : x264 core 120 r2164 da19765
Encoding settings                        : cabac=1 / ref=5 / deblock=1:-1:-1 / analyse=0x3:0x113 / me=umh / subme=9 / psy=1 / psy_rd=1.00:0.00 / mixed_ref=1 / me_range=24 / chroma_me=1 / trellis=2 / 8x8dct=1 / cqm=0 / deadzone=21,11 / fast_pskip=1 / chroma_qp_offset=-2 / threads=3 / sliced_threads=0 / nr=0 / decimate=1 / interlaced=0 / bluray_compat=0 / constrained_intra=0 / bframes=5 / b_pyramid=2 / b_adapt=2 / b_bias=0 / direct=1 / weightb=1 / open_gop=0 / weightp=2 / keyint=240 / keyint_min=23 / scenecut=40 / intra_refresh=0 / rc_lookahead=100 / rc=2pass / mbtree=1 / bitrate=11703 / ratetol=1.0 / qcomp=0.70 / qpmin=0 / qpmax=51 / qpstep=4 / cplxblur=20.0 / qblur=0.5 / vbv_maxrate=50000 / vbv_bufsize=50000 / nal_hrd=none / ip_ratio=1.40 / aq=1:1.00
Language                                 : English
Default                                  : Yes
Forced                                   : No
Audio #1
ID                                       : 2
Format                                   : AC-3
Format/Info                              : Audio Coding 3
Mode extension                           : CM (complete main)
Format settings, Endianness              : Big
Codec ID                                 : A_AC3
Duration                                 : 1h 29mn
Bit rate mode                            : Constant
Bit rate                                 : 192 Kbps
Channel(s)                               : 2 channels
Channel positions                        : Front: L R
Sampling rate                            : 48.0 KHz
Bit depth                                : 16 bits
Compression mode                         : Lossy
Stream size                              : 123 MiB (2%)
Title                                    : MVO (ТВ3)
Language                                 : Russian
Default                                  : Yes
Forced                                   : No
Audio #2
ID                                       : 3
Format                                   : AC-3
Format/Info                              : Audio Coding 3
Mode extension                           : CM (complete main)
Format settings, Endianness              : Big
Codec ID                                 : A_AC3
Duration                                 : 1h 29mn
Bit rate mode                            : Constant
Bit rate                                 : 192 Kbps
Channel(s)                               : 2 channels
Channel positions                        : Front: L R
Sampling rate                            : 48.0 KHz
Bit depth                                : 16 bits
Compression mode                         : Lossy
Stream size                              : 123 MiB (2%)
Title                                    : MVO (ТВЦ)
Language                                 : Russian
Default                                  : No
Forced                                   : No
Audio #3
ID                                       : 4
Format                                   : AC-3
Format/Info                              : Audio Coding 3
Mode extension                           : CM (complete main)
Format settings, Endianness              : Big
Codec ID                                 : A_AC3
Duration                                 : 1h 29mn
Bit rate mode                            : Constant
Bit rate                                 : 192 Kbps
Channel(s)                               : 2 channels
Channel positions                        : Front: L R
Sampling rate                            : 48.0 KHz
Bit depth                                : 16 bits
Compression mode                         : Lossy
Stream size                              : 123 MiB (2%)
Title                                    : VO (ANTipiGo)
Language                                 : Russian
Default                                  : No
Forced                                   : No
Audio #4
ID                                       : 5
Format                                   : AC-3
Format/Info                              : Audio Coding 3
Mode extension                           : CM (complete main)
Format settings, Endianness              : Big
Codec ID                                 : A_AC3
Duration                                 : 1h 29mn
Bit rate mode                            : Constant
Bit rate                                 : 192 Kbps
Channel(s)                               : 2 channels
Channel positions                        : Front: L R
Sampling rate                            : 48.0 KHz
Bit depth                                : 16 bits
Compression mode                         : Lossy
Stream size                              : 123 MiB (2%)
Title                                    : VO (Rihard88)
Language                                 : Russian
Default                                  : No
Forced                                   : No
Audio #5
ID                                       : 6
Format                                   : AC-3
Format/Info                              : Audio Coding 3
Mode extension                           : CM (complete main)
Format settings, Endianness              : Big
Codec ID                                 : A_AC3
Duration                                 : 1h 29mn
Bit rate mode                            : Constant
Bit rate                                 : 192 Kbps
Channel(s)                               : 2 channels
Channel positions                        : Front: L R
Sampling rate                            : 48.0 KHz
Bit depth                                : 16 bits
Compression mode                         : Lossy
Stream size                              : 123 MiB (2%)
Title                                    : Original
Language                                 : English
Default                                  : No
Forced                                   : No
Text #1
ID                                       : 7
Format                                   : UTF-8
Codec ID                                 : S_TEXT/UTF8
Codec ID/Info                            : UTF-8 Plain Text
Title                                    : Full (Nickojoy)
Language                                 : Russian
Default                                  : No
Forced                                   : No
Text #2
ID                                       : 8
Format                                   : UTF-8
Codec ID                                 : S_TEXT/UTF8
Codec ID/Info                            : UTF-8 Plain Text
Title                                    : Full
Language                                 : English
Default                                  : No
Forced                                   : No
Menu
00:00:00.000                             : en:00:00:00.000
00:02:50.921                             : en:00:02:50.921
00:05:10.977                             : en:00:05:10.977
00:07:49.344                             : en:00:07:49.344
00:10:06.648                             : en:00:10:06.648
00:12:40.301                             : en:00:12:40.301
00:14:43.007                             : en:00:14:43.007
00:17:40.643                             : en:00:17:40.643
00:20:21.762                             : en:00:20:21.762
00:24:20.042                             : en:00:24:20.042
00:25:44.668                             : en:00:25:44.668
00:31:06.281                             : en:00:31:06.281
00:33:58.161                             : en:00:33:58.161
00:35:53.860                             : en:00:35:53.860
00:39:31.953                             : en:00:39:31.953
00:42:38.389                             : en:00:42:38.389
00:44:57.486                             : en:00:44:57.486
00:48:23.359                             : en:00:48:23.359
00:54:16.128                             : en:00:54:16.128
00:58:17.327                             : en:00:58:17.327
01:02:13.271                             : en:01:02:13.271
01:05:21.501                             : en:01:05:21.501
01:09:57.860                             : en:01:09:57.860
01:12:39.105                             : en:01:12:39.105
01:14:51.696                             : en:01:14:51.696
01:19:17.586                             : en:01:19:17.586
01:21:36.225                             : en:01:21:36.225
01:24:28.272                             : en:01:24:28.272
01:26:05.243                             : en:01:26:05.243
- -
[Торрент-статистика]
[Профиль]  [ЛС] 
Показать сообщения:    
Ответить на тему

Текущее время: Сегодня 04:07

Часовой пояс: GMT + 4



Вы не можете начинать темы
Вы не можете отвечать на сообщения
Вы не можете редактировать свои сообщения
Вы не можете удалять свои сообщения
Вы не можете голосовать в опросах
Вы не можете прикреплять файлы к сообщениям
Вы не можете скачивать файлы