После нашей эры / After Earth (М. Найт Шьямалан / M. Night Shyamalan) [2013, США, фантастика, приключения, боевик, BDRip-AVC 1080p] [iTunes Russia]

Ответить на тему
 
Автор
Сообщение

TiZAr ®

Пол:

Стаж: 7 лет 7 месяцев

Сообщений: 815

Репутация: 1160 [+] [-]

Откуда: Россия

Пост 24-Сен-2013 00:32

[Цитировать] 

После нашей эры / After Earth
«Danger is real. Fear is a choice.»
-
  • Страна: США
  • Студия: Blinding Edge Pictures, Columbia Pictures, Overbrook Entertainment
  • Жанр: фантастика, приключения, боевик
  • Год выпуска: 2013
  • Продолжительность: 01:40:03
  • Перевод: русский профессиональный (полное дублирование) [Лицензия, iTunes]
  • Оригинальная аудиодорожка: английская
  • Русские субтитры: есть
  • Режиссер: М. Найт Шьямалан / M. Night Shyamalan
  • В ролях: Джейден Смит, Уилл Смит, Софи Оконедо, Зои Кравиц, Гленн Моршауэр, Кристофер Хивджу, Саша Дхаван, Крис Гир, Диего Клаттенхофф, Дэвид Денман
  • Роли дублировали: Станислав Концевич, Сергей Чихачев и др.-
    События разворачиваются через тысячу лет после катастрофы, вынудившей человечество покинуть Землю. Новым домом становится планета под названием Нова Прайм. Легендарный генерал Сайфер Рейдж возвращается с очередного боевого задания в семью, которая раньше обходилась без его родительского внимания, чтобы стать отцом своему 13-летнему сыну Китаю. Во время астероидной бури летательный аппарат с папой и сыном на борту терпит крушение, падая на незнакомую и опасную Землю. И пока Рейдж-старший на последнем дыхании лежит среди обломков своего корабля, сын должен пересечь враждебный ландшафт, чтобы запустить их спасательный маячок. Ни о чем большем юноша в своей жизни не мечтал: быть солдатом, как отец, — его заветное желание. Сегодня у него есть шанс проявить себя.-
  • Тип релиза: BDRip 1080p (исходник: После нашей эры / After Earth (2013) BD-Remux -BLUEBIRD)
  • Контейнер: MKV
  • Видео кодек: x264
  • Аудио кодек: AC3
  • Видео: AVC / High@L4.1 / 2 pass / 23,976 fps / 1920x800p (2,40:1) / 6,9 Mbps / 0.187
  • Аудио 1: AC3 / 5.1 ch / 384 kbps / Русский дубляж, iTunes
  • Аудио 2: AC3 / 5.1 ch / 640 kbps / Английский original, BD US
  • Субтитры: [softsub SRT]
    Русские Forced, Killbrain (включены по умолчанию)
    Русские Full, Voronine
    Английские Full, BD US
    Английские SDH, mod. BD US
    Английские SDH-COLOR, mod. BD US
  • Дополнительно: Сохранены оригинальные чаптеры (главы) как на Blu-ray- - - -

Дополнительно о фильме:

Знаете ли вы, что...

Технические детали съёмки:

Производство, студия дубляжа, прокат:

Log x264:

x264 [info]: frame I:1060 Avg QP:15.22 size:220859
x264 [info]: frame P:32412 Avg QP:17.75 size: 77569
x264 [info]: frame B:110455 Avg QP:19.89 size: 21993

MediaInfo:

Общее
Уникальный идентификатор : 209335607443317909185027908734925859384 (0x9D7C924C860BD901B6C9FE7DC1C6EA38)
Полное имя : After.Earth.2013.BDRip1080p.iTunes(Killbrain)_[scarabey.org].mkv
Формат : Matroska
Версия формата : Version 2
Размер файла : 5,54 Гбайт
Продолжительность : 1 ч. 40 м.
Общий поток : 7926 Кбит/сек
Название фильма : After Earth (2013) by Killbrain
Дата кодирования : UTC 2013-09-23 19:09:06
Программа кодирования : mkvmerge v5.8.0 ('No Sleep / Pillow') built on Sep 2 2012 15:37:04
Библиотека кодирования : libebml v1.2.3 + libmatroska v1.3.0
Видео
Идентификатор : 1
Формат : AVC
Формат/Информация : Advanced Video Codec
Профиль формата : High@L4.1
Параметр CABAC формата : Да
Параметр ReFrames формата : 4 кадра
Идентификатор кодека : V_MPEG4/ISO/AVC
Продолжительность : 1 ч. 40 м.
Битрейт : 6900 Кбит/сек
Ширина : 1920 пикселей
Высота : 800 пикселей
Соотношение сторон : 2,40:1
Режим частоты кадров : Постоянный
Частота кадров : 23,976 кадра/сек
Цветовое пространство : YUV
Субдискретизация насыщенности : 4:2:0
Битовая глубина : 8 бит
Тип развёртки : Прогрессивная
Бит/(Пиксели*Кадры) : 0.187
Размер потока : 4,71 Гбайт (85%)
Заголовок : After Earth (2013)
Библиотека кодирования : x264 core 138 r2358 9e941d1
Настройки программы : cabac=1 / ref=4 / deblock=1:-3:-3 / analyse=0x3:0x113 / me=umh / subme=10 / psy=1 / psy_rd=1.00:0.15 / mixed_ref=1 / me_range=32 / chroma_me=1 / trellis=2 / 8x8dct=1 / cqm=0 / deadzone=21,11 / fast_pskip=0 / chroma_qp_offset=-3 / threads=3 / lookahead_threads=1 / sliced_threads=0 / nr=0 / decimate=0 / interlaced=0 / bluray_compat=0 / constrained_intra=0 / bframes=8 / b_pyramid=2 / b_adapt=2 / b_bias=0 / direct=3 / weightb=1 / open_gop=0 / weightp=2 / keyint=240 / keyint_min=24 / scenecut=40 / intra_refresh=0 / rc_lookahead=60 / rc=2pass / mbtree=0 / bitrate=6900 / ratetol=1.0 / qcomp=0.65 / qpmin=0 / qpmax=69 / qpstep=4 / cplxblur=20.0 / qblur=0.5 / vbv_maxrate=40000 / vbv_bufsize=30000 / nal_hrd=none / ip_ratio=1.40 / pb_ratio=1.30 / aq=1:0.80
Язык : English
Default : Да
Forced : Нет
Аудио #1
Идентификатор : 2
Формат : AC-3
Формат/Информация : Audio Coding 3
Расширение режима : CM (complete main)
Параметр Endianness формата : Big
Идентификатор кодека : A_AC3
Продолжительность : 1 ч. 40 м.
Вид битрейта : Постоянный
Битрейт : 384 Кбит/сек
Каналы : 6 каналов
Расположение каналов : Front: L C R, Side: L R, LFE
Частота : 48,0 КГц
Битовая глубина : 16 бит
Метод сжатия : С потерями
Размер потока : 275 Мбайт (5%)
Заголовок : AC3 / 5.1 ch / 384 kbps / Русский Дубляж, iTunes
Язык : Russian
Default : Да
Forced : Нет
Аудио #2
Идентификатор : 3
Формат : AC-3
Формат/Информация : Audio Coding 3
Расширение режима : CM (complete main)
Параметр Endianness формата : Big
Идентификатор кодека : A_AC3
Продолжительность : 1 ч. 40 м.
Вид битрейта : Постоянный
Битрейт : 640 Кбит/сек
Каналы : 6 каналов
Расположение каналов : Front: L C R, Side: L R, LFE
Частота : 48,0 КГц
Битовая глубина : 16 бит
Метод сжатия : С потерями
Размер потока : 458 Мбайт (8%)
Заголовок : AC3 / 5.1 ch / 640 kbps / Английский Original, BD US
Язык : English
Default : Нет
Forced : Нет
Текст #1
Идентификатор : 4
Формат : UTF-8
Идентификатор кодека : S_TEXT/UTF8
Идентификатор кодека/Информация : UTF-8 Plain Text
Заголовок : Forced, Killbrain
Язык : Russian
Default : Да
Forced : Нет
Текст #2
Идентификатор : 5
Формат : UTF-8
Идентификатор кодека : S_TEXT/UTF8
Идентификатор кодека/Информация : UTF-8 Plain Text
Заголовок : Full, Voronine
Язык : Russian
Default : Нет
Forced : Нет
Текст #3
Идентификатор : 6
Формат : UTF-8
Идентификатор кодека : S_TEXT/UTF8
Идентификатор кодека/Информация : UTF-8 Plain Text
Заголовок : Full, BD US
Язык : English
Default : Нет
Forced : Нет
Текст #4
Идентификатор : 7
Формат : UTF-8
Идентификатор кодека : S_TEXT/UTF8
Идентификатор кодека/Информация : UTF-8 Plain Text
Заголовок : SDH, mod. BD US
Язык : English
Default : Нет
Forced : Нет
Текст #5
Идентификатор : 8
Формат : UTF-8
Идентификатор кодека : S_TEXT/UTF8
Идентификатор кодека/Информация : UTF-8 Plain Text
Заголовок : SDH-COLOR, mod. BD US
Язык : English
Default : Нет
Forced : Нет
Меню
00:00:00.000 : :Chapter 01
00:08:52.696 : :Chapter 02
00:15:36.393 : :Chapter 03
00:21:34.791 : :Chapter 04
00:30:50.556 : :Chapter 05
00:36:45.952 : :Chapter 06
00:41:14.429 : :Chapter 07
00:47:06.072 : :Chapter 08
00:52:36.318 : :Chapter 09
00:59:48.585 : :Chapter 10
01:05:25.795 : :Chapter 11
01:11:10.180 : :Chapter 12
01:15:47.332 : :Chapter 13
01:20:17.686 : :Chapter 14
01:24:38.782 : :Chapter 15
01:29:57.390 : :Chapter 16

Рецензия с Афиша.Ру:

Малоинтересный футуристический квест с двумя Смитами
Экологическая катастрофа и другие собственные безобразия вынудили землян переселиться на другую планету, где тысячелетие спустя они проживают в состоянии войны с местными чудищами урсами. Суровый генерал Сайфер (Смит), забросивший воспитание своего сына-подростка (Смит), наконец берет его на маневры; звездолет, который помимо солдат перевозит пленную урсу, терпит крушение и совершает аварийную посадку на Земле. Все мертвы, у Сайфера сломаны ноги, подросток вынужден в одиночку пробираться мимо разросшихся лопухов и озверевших обезьян к спасательному маячку. Ко всему прочему, где-то бродит выжившая урса.
Первый фильм потенциальной франшизы (которой, судя по кассовым сборам в США, не суждено случиться) был, по легенде, придуман Уиллом Смитом как история об отце и сыне, у которых в глуши сломалась машина, — и только впоследствии оброс стомиллионными декорациями, слепыми монстрами и несчастным Шьямаланом, который, если так дальше пойдет, скоро станет режиссером межпрограммных отбивок на Russia Today. И легенда эта очень правдоподобна: больше всего «После нашей эры» похож на рассказик условного Аркадия Гайдара, и недоумение, которое он вызывает у зрителя, — прежде всего, недоумение взрослого человека, пришедшего на фантастический боевик с Уиллом Смитом, а вынужденного смотреть назидательную сказку о попытках смазливого и, чего уж, не слишком обаятельного тинейджера заслужить папино уважение и его приключениях среди львов и орлов. Вариант с машиной был бы, пожалуй, и предпочтительнее, поскольку как минимум отменил бы невыносимо тяжеловесное вступление, вводящее в курс дела. А что касается постапокалиптической Земли, авторы все равно не смогли придумать ничего лучше, чем несколько увеличить уже существующие виды флоры и фауны в размерах — в тревожном соответствии с раздутыми эго семейства Смитов и нанятого режиссера.
4 июня 2013 г. Текст: Станислав Зельвенский
afisha.ru

Немного отзывов с Кинопоиска.Ру:




_________________
Не стоит обращать внимания на отсутствие сидов на моих раздачах. Все мои релизы мультитрекерные - нет сидов, включите DHT.
За релизами в HD качестве обращайтесь в личку, либо отписывайтесь в теме.
[Торрент-статистика]
[Профиль]  [ЛС] 
Показать сообщения:    
Ответить на тему

Текущее время: Сегодня 05:44

Часовой пояс: GMT + 4



Вы не можете начинать темы
Вы не можете отвечать на сообщения
Вы не можете редактировать свои сообщения
Вы не можете удалять свои сообщения
Вы не можете голосовать в опросах
Вы не можете прикреплять файлы к сообщениям
Вы не можете скачивать файлы