Над законом (Нико-1) / Above the Law (Эндрю Дэвис / Andrew Davis) [1988, США, Гонконг, боевик, BDRip 720p] 2xDub (Мост-Видео, Варус-Видео) + 2xDVO (НТВ-ТВ3, Universal) + MVO (Россия-РенТВ) + AVO (Михалев) + Original + subs (Rus, Eng)

Ответить на тему
 
Автор
Сообщение

kaliasa ®

Пол:

Стаж: 5 лет 6 месяцев

Сообщений: 113

Репутация: 84 [+] [-]

Пост 15-Сен-2013 20:27

[Цитировать] 

-Над законом (Нико-1) / Above the Law
«Он был тайным агентом, прошедшим подготовку во Вьетнаме. У него черный пояс по айкидо... и его семья в руках мафии. Он полицейский со своими принципами.»
- Год выпуска: 1988
Страна: США, Гонконг
Жанр: боевик, триллер, драма, криминал
Продолжительность: 01:39:16
Перевод 1: Профессиональный (полное дублирование) Мост-видео
Перевод 2: Профессиональный (полное дублирование) Варус-Видео
Перевод 3: Профессиональный (двухголосый, закадровый) НТВ-ТВ3
Перевод 4: Профессиональный (многоголосый, закадровый) Россия-РенТВ
Перевод 5: Профессиональный (двухголосый, закадровый) Universal
Перевод 6: Авторский одноголосый А.Михалев
Оригинальная звуковая дорожка: English
Cубтитры: Russian, English-Режиссер: Эндрю Дэвис / Andrew Davis-В ролях: Стивен Сигал, Пэм Гриер, Генри Сильва, Рон Дин, Даниэль Фаральдо, Шэрон Стоун, Мигель Нино, Николас Кусенко, Джо Греко, Челси Росс-Описание: Чикагский полицейский Нико Таскани наткнулся на крупное дело, настолько крупное, что его отстраняют от службы, а задержанных по делу отпускают.
Нико напал на след бывших сотрудников ЦРУ, которые перевозят наркотики и даже готовят политическое убийство. Они считают, что стоят над законом. Но его закон выше...-Релиз от: -------Качество: BDRip (720р)
Формат: MKV
Видео: 1272x720 at 23.976 fps, x264@L4.1, crf, ~10700 kbps avg
Аудио #1: Russian: 48 kHz, AC3, 3/2 (L,C,R,l,r) + LFE ch, ~384.00 kbps avg |Дубляж, Мост-Видео|
Аудио #2: Russian: 48 kHz, AC3, 2/0 (L,R) ch, ~192.00 kbps avg |Дубляж, Варус Видео|
Аудио #3: Russian: 48 kHz, AC3, 2/0 (L,R) ch, ~192.00 kbps avg |Двухголосый закадровый, НТВ-ТВ3|
Аудио #4: Russian: 48 kHz, AC3, 2/0 (L,R) ch, ~192.00 kbps avg |Многоголосый закадровый, Россия-РенТВ|
Аудио #5: Russian: 48 kHz, AC3, 2/0 (L,R) ch, ~192.00 kbps avg |Двухголосый закадровый, Universal|
Аудио #6: Russian: 48 kHz, AC3, 2/0 (L,R) ch, ~192.00 kbps avg |Одноголосый закадровый, А. Михалев|
Аудио #7: Ukrainian: 48 kHz, AC3, 2/0 (L,R) ch, ~192.00 kbps avg |Многоголосый закадровый, 1+1|
Аудио #8: English: 48 kHz, AC3, 3/2 (L,C,R,l,r) + LFE ch, ~640.00 kbps avg

Скриншоты

Mi

Код:
Формат : Matroska
Версия формата : Version 4 / Version 2
Размер файла : 8,94 Гбайт
Продолжительность : 1 ч. 39 м.
Общий поток : 12,9 Мбит/сек
Название фильма : Above the Law (1988) - Release for HDCLUB by Skazhutin
Дата кодирования : UTC 2013-03-18 09:28:06
Программа кодирования : mkvmerge v6.1.0 ('Old Devil') built on Mar 2 2013 14:32:37
Библиотека кодирования : libebml v1.3.0 + libmatroska v1.4.0
Attachment : Yes / Yes
Видео
Идентификатор : 1
Формат : AVC
Формат/Информация : Advanced Video Codec
Профиль формата : High@L4.1
Параметр CABAC формата : Да
Параметр ReFrames формата : 9 кадров
Идентификатор кодека : V_MPEG4/ISO/AVC
Продолжительность : 1 ч. 39 м.
Битрейт : 10,5 Мбит/сек
Ширина : 1272 пикселя
Высота : 720 пикселей
Соотношение сторон : 16:9
Частота кадров : 23,976 кадра/сек
Цветовое пространство : YUV
Субдискретизация насыщенности : 4:2:0
Битовая глубина : 8 бит
Тип развёртки : Прогрессивная
Бит/(Пиксели*Кадры) : 0.477
Размер потока : 7,26 Гбайт (81%)
Заголовок : Release for HDCLUB
Библиотека кодирования : x264 core 130 r2273kMod b3065e6
Настройки программы : cabac=1 / ref=9 / deblock=1:-3:-3 / analyse=0x3:0x113 / me=umh / subme=11 / psy=1 / fade_compensate=0.00 / psy_rd=1.00:0.00 / mixed_ref=1 / me_range=48 / chroma_me=1 / trellis=2 / 8x8dct=1 / cqm=0 / deadzone=21,11 / fast_pskip=1 / chroma_qp_offset=-2 / threads=12 / lookahead_threads=2 / sliced_threads=0 / nr=0 / decimate=1 / interlaced=0 / bluray_compat=0 / constrained_intra=0 / bframes=9 / b_pyramid=2 / b_adapt=2 / b_bias=0 / direct=3 / weightb=1 / open_gop=0 / weightp=2 / keyint=250 / keyint_min=23 / scenecut=40 / intra_refresh=0 / rc_lookahead=120 / rc=crf / mbtree=1 / crf=18.5000 / qcomp=0.80 / qpmin=0 / qpmax=69 / qpstep=4 / vbv_maxrate=50000 / vbv_bufsize=62500 / crf_max=0.0 / nal_hrd=none / ip_ratio=1.10 / aq=1:0.70
Язык : English
Коэффициенты матрицы : BT.709-5, BT.1361, IEC 61966-2-4 709, SMPTE RP177
Аудио #1
Идентификатор : 2
Формат : AC-3
Формат/Информация : Audio Coding 3
Расширение режима : CM (complete main)
Идентификатор кодека : A_AC3
Продолжительность : 1 ч. 39 м.
Вид битрейта : Постоянный
Битрейт : 384 Кбит/сек
Каналы : 6 каналов
Расположение каналов : Front: L C R, Side: L R, LFE
Частота : 48,0 КГц
Битовая глубина : 16 бит
Метод сжатия : С потерями
Размер потока : 273 Мбайт (3%)
Заголовок : AC3 5.1 @ 384 kbps - Dub, Most-Video
Язык : Russian
Аудио #2
Идентификатор : 3
Формат : AC-3
Формат/Информация : Audio Coding 3
Расширение режима : CM (complete main)
Идентификатор кодека : A_AC3
Продолжительность : 1 ч. 39 м.
Вид битрейта : Постоянный
Битрейт : 192 Кбит/сек
Каналы : 2 канала
Расположение каналов : Front: L R
Частота : 48,0 КГц
Битовая глубина : 16 бит
Метод сжатия : С потерями
Размер потока : 136 Мбайт (1%)
Заголовок : AC3 2.0 @ 192 kbps - Dub, Varus
Язык : Russian
Аудио #3
Идентификатор : 4
Формат : AC-3
Формат/Информация : Audio Coding 3
Расширение режима : CM (complete main)
Идентификатор кодека : A_AC3
Продолжительность : 1 ч. 39 м.
Вид битрейта : Постоянный
Битрейт : 192 Кбит/сек
Каналы : 2 канала
Расположение каналов : Front: L R
Частота : 48,0 КГц
Битовая глубина : 16 бит
Метод сжатия : С потерями
Размер потока : 136 Мбайт (1%)
Заголовок : AC3 2.0 @ 192 kbps - DVO, NTV-TV3
Язык : Russian
Аудио #4
Идентификатор : 5
Формат : AC-3
Формат/Информация : Audio Coding 3
Расширение режима : CM (complete main)
Идентификатор кодека : A_AC3
Продолжительность : 1 ч. 39 м.
Вид битрейта : Постоянный
Битрейт : 192 Кбит/сек
Каналы : 2 канала
Расположение каналов : Front: L R
Частота : 48,0 КГц
Битовая глубина : 16 бит
Метод сжатия : С потерями
Размер потока : 136 Мбайт (1%)
Заголовок : AC3 2.0 @ 192 kbps - MVO, Russia-Ren-TV
Язык : Russian
Аудио #5
Идентификатор : 6
Формат : AC-3
Формат/Информация : Audio Coding 3
Расширение режима : CM (complete main)
Идентификатор кодека : A_AC3
Продолжительность : 1 ч. 39 м.
Вид битрейта : Постоянный
Битрейт : 192 Кбит/сек
Каналы : 2 канала
Расположение каналов : Front: L R
Частота : 48,0 КГц
Битовая глубина : 16 бит
Метод сжатия : С потерями
Размер потока : 136 Мбайт (1%)
Заголовок : AC3 2.0 @ 192 kbps - DVO, Universal
Язык : Russian
Аудио #6
Идентификатор : 7
Формат : AC-3
Формат/Информация : Audio Coding 3
Расширение режима : CM (complete main)
Идентификатор кодека : A_AC3
Продолжительность : 1 ч. 39 м.
Вид битрейта : Постоянный
Битрейт : 192 Кбит/сек
Каналы : 2 канала
Расположение каналов : Front: L R
Частота : 48,0 КГц
Битовая глубина : 16 бит
Метод сжатия : С потерями
Размер потока : 136 Мбайт (1%)
Заголовок : AC3 2.0 @ 192 kbps - VO, Mihalev
Язык : Russian
Аудио #7
Идентификатор : 8
Формат : AC-3
Формат/Информация : Audio Coding 3
Расширение режима : CM (complete main)
Идентификатор кодека : A_AC3
Продолжительность : 1 ч. 39 м.
Вид битрейта : Постоянный
Битрейт : 192 Кбит/сек
Каналы : 2 канала
Расположение каналов : Front: L R
Частота : 48,0 КГц
Битовая глубина : 16 бит
Метод сжатия : С потерями
Размер потока : 136 Мбайт (1%)
Заголовок : AC3 2.0 @ 192 kbps - MVO, 1+1
Язык : Ukrainian
Аудио #8
Идентификатор : 9
Формат : AC-3
Формат/Информация : Audio Coding 3
Расширение режима : CM (complete main)
Идентификатор кодека : A_AC3
Продолжительность : 1 ч. 39 м.
Вид битрейта : Постоянный
Битрейт : 640 Кбит/сек
Каналы : 6 каналов
Расположение каналов : Front: L C R, Side: L R, LFE
Частота : 48,0 КГц
Битовая глубина : 16 бит
Метод сжатия : С потерями
Размер потока : 454 Мбайт (5%)
Заголовок : AC3 5.1 @ 640 kbps
Язык : English
Текст #1
Идентификатор : 10
Формат : UTF-8
Идентификатор кодека : S_TEXT/UTF8
Идентификатор кодека/Информация : UTF-8 Plain Text
Язык : Russian
Текст #2
Идентификатор : 11
Формат : UTF-8
Идентификатор кодека : S_TEXT/UTF8
Идентификатор кодека/Информация : UTF-8 Plain Text
Язык : English
Меню
00:00:00.000 : en:Master Class (Credits)
00:02:49.085 : en:Chemical Interrogation
00:06:13.456 : en:"I can make you disappear"
00:08:45.233 : en:Christening Day
00:11:51.127 : en:Jax's Suitor
00:12:47.558 : en:Bar Blast
00:17:14.908 : en:Surveillance
00:21:26.785 : en:Meat Market Mayhem
00:24:59.039 : en:Nico on Top
00:27:40.075 : en:Free to Go
00:29:47.410 : en:Questionable Orders
00:32:07.550 : en:The Hiding Place
00:36:23.472 : en:Sunday Mass
00:41:15.264 : en:The Salvano Connection
00:43:09.628 : en:Neighborhood Cleanup
00:48:35.329 : en:Under Arrest
00:52:25.308 : en:Suspension
00:54:26.263 : en:Intended Targets
00:57:55.680 : en:Ambush
01:01:03.201 : en:"I wanna be #1"
01:05:20.583 : en:A Killing Team
01:07:59.408 : en:Priest in Peril
01:14:15.492 : en:Officer Down
01:16:06.979 : en:Rapid Transit
01:19:26.511 : en:Lethal Pride?
01:21:05.735 : en:Rooftop Heart-to-Heart
01:24:15.675 : en:Garage Free-for-All
01:30:13.032 : en:Just for the Fun
01:32:42.265 : en:Kitchen Cleanup
01:33:54.211 : en:Personal Thanks
01:35:55.124 : en:Above the Law No More; End Credits
-
[Торрент-статистика]
[Профиль]  [ЛС] 
Показать сообщения:    
Ответить на тему

Текущее время: Сегодня 15:59

Часовой пояс: GMT + 4



Вы не можете начинать темы
Вы не можете отвечать на сообщения
Вы не можете редактировать свои сообщения
Вы не можете удалять свои сообщения
Вы не можете голосовать в опросах
Вы не можете прикреплять файлы к сообщениям
Вы не можете скачивать файлы