Война миров Z / World War Z (Марк Форстер / Marc Forster) [2013 г., ужасы, фантастика, боевик, триллер, приключения, BDRip-AVC 1080p] [Театральная версия / Theatrical Cut] [Лицензия]

Ответить на тему
 
Автор
Сообщение

TiZAr ®

Пол:

Стаж: 3 года 3 месяца

Сообщений: 836

Репутация: 1157 [+] [-]

Откуда: Россия

Пост 09-Сен-2013 14:55

[Цитировать] 

Война миров Z / World War Z
«Remember Philly!»
Год выпуска: 2013
Страна: США
Жанр: ужасы, фантастика, боевик, триллер, приключения
Продолжительность: 02:03:03
Перевод: Профессиональный (полное дублирование) [Лицензия, Paramount Pictures]
Русские субтитры: есть
Режиссер: Марк Форстер / Marc Forster
Производство: Apparatus Productions, GK Films, Hemisphere Media Capital, Latina Pictures, Paramount Pictures, Plan B Entertainment, Skydance Productions- -В ролях:
Брэд Питт, Мирей Инос, Стерлинг Джеринс, Эбигейл Харгров, Даниэла Картес, Фана Мокоэна, Пьерфранческо Фавино, Питер Капальди, Мориц Бляйбтрой, Рут Негга и др.
Описание:
Постапокалиптический боевик рассказывает о жизни нескольких героев, выживших после войны с зомби. У каждого из них - своя опасная и трудная история, но объединяет их одно - в страшной войне каждый потерял близких. Спустя несколько лет выжившие дают интервью представителю ООН, который составляет отчет о великой войне с зомби.

Тип релиза: BDRip-AVC 1080p (исходник: World War Z 2013 Theatrical Cut 3D BluRay 1080p AVC DTS-HDMA7.1-Dolala@CHDBits)
Контейнер: MKV
Видео кодек: x264
Аудио кодек: AC3
Видео: AVC / High@L4.1 / 2 pass / 23,976 fps / 1920x800p (2,40:1) / 8,5 Mbps / 0.231
Аудио 1: AC3 / 5.1 ch / 640 kbps / Русский дубляж, BD RUS
Аудио 2: AC3 / 5.1 ch / 640 kbps / Английский original, BD US
Субтитры: [softsub SRT]
Русские Full, Voronine
Английские Full, BD US
Английские SDH, BD US
Дополнительно: Сохранены оригинальные чаптеры (главы) как на Blu-ray

MI

Общее
Уникальный идентификатор : 230290662634753568075906603319943892185 (0xAD405E4970A2193E9DE39FD523BE0CD9)
Полное имя : F:\Скачка торрент\World.War.Z.2013.Theatrical.BDRip1080p(Killbrain).mkv
Формат : Matroska
Версия формата : Version 4 / Version 2
Размер файла : 7,92 Гбайт
Продолжительность : 1 ч. 56 м.
Общий поток : 9778 Кбит/сек
Название фильма : World War Z (2013) [Theatrical Cut] by Killbrain
Дата кодирования : UTC 2013-09-13 17:17:35
Программа кодирования : mkvmerge v6.3.0 ('You can't stop me!') built on Jun 28 2013 20:09:41
Библиотека кодирования : libebml v1.3.0 + libmatroska v1.4.0
Видео
Идентификатор : 1
Формат : AVC
Формат/Информация : Advanced Video Codec
Профиль формата : High@L4.1
Параметр CABAC формата : Да
Параметр ReFrames формата : 4 кадра
Идентификатор кодека : V_MPEG4/ISO/AVC
Продолжительность : 1 ч. 56 м.
Битрейт : 8500 Кбит/сек
Ширина : 1920 пикселей
Высота : 800 пикселей
Соотношение сторон : 2,40:1
Режим частоты кадров : Постоянный
Частота кадров : 23,976 кадра/сек
Цветовое пространство : YUV
Субдискретизация насыщенности : 4:2:0
Битовая глубина : 8 бит
Тип развёртки : Прогрессивная
Бит/(Пиксели*Кадры) : 0.231
Размер потока : 6,73 Гбайт (85%)
Заголовок : World War Z (2013) [Theatrical Cut]
Библиотека кодирования : x264 core 138 r2358 9e941d1
Настройки программы : cabac=1 / ref=4 / deblock=1:-3:-3 / analyse=0x3:0x113 / me=umh / subme=10 / psy=1 / psy_rd=1.00:0.15 / mixed_ref=1 / me_range=32 / chroma_me=1 / trellis=2 / 8x8dct=1 / cqm=0 / deadzone=21,11 / fast_pskip=0 / chroma_qp_offset=-3 / threads=3 / lookahead_threads=1 / sliced_threads=0 / nr=0 / decimate=0 / interlaced=0 / bluray_compat=0 / constrained_intra=0 / bframes=8 / b_pyramid=2 / b_adapt=2 / b_bias=0 / direct=3 / weightb=1 / open_gop=0 / weightp=2 / keyint=240 / keyint_min=24 / scenecut=40 / intra_refresh=0 / rc_lookahead=60 / rc=2pass / mbtree=0 / bitrate=8500 / ratetol=1.0 / qcomp=0.65 / qpmin=0 / qpmax=69 / qpstep=4 / cplxblur=20.0 / qblur=0.5 / vbv_maxrate=40000 / vbv_bufsize=30000 / nal_hrd=none / ip_ratio=1.40 / pb_ratio=1.30 / aq=1:0.80
Язык : English
Default : Да
Forced : Нет
Аудио #1
Идентификатор : 2
Формат : AC-3
Формат/Информация : Audio Coding 3
Расширение режима : CM (complete main)
Параметр Endianness формата : Big
Идентификатор кодека : A_AC3
Продолжительность : 1 ч. 56 м.
Вид битрейта : Постоянный
Битрейт : 640 Кбит/сек
Каналы : 6 каналов
Расположение каналов : Front: L C R, Side: L R, LFE
Частота : 48,0 КГц
Битовая глубина : 16 бит
Метод сжатия : С потерями
Размер потока : 531 Мбайт (7%)
Заголовок : AC3 / 5.1 ch / 640 kbps / Русский дубляж, BD RUS
Язык : Russian
Default : Да
Forced : Нет
Аудио #2
Идентификатор : 3
Формат : AC-3
Формат/Информация : Audio Coding 3
Расширение режима : CM (complete main)
Параметр Endianness формата : Big
Идентификатор кодека : A_AC3
Продолжительность : 1 ч. 56 м.
Вид битрейта : Постоянный
Битрейт : 640 Кбит/сек
Каналы : 6 каналов
Расположение каналов : Front: L C R, Side: L R, LFE
Частота : 48,0 КГц
Битовая глубина : 16 бит
Метод сжатия : С потерями
Размер потока : 531 Мбайт (7%)
Заголовок : AC3 / 5.1 ch / 640 kbps / Английский original, BD US
Язык : English
Default : Нет
Forced : Нет
Текст #1
Идентификатор : 4
Формат : UTF-8
Идентификатор кодека : S_TEXT/UTF8
Идентификатор кодека/Информация : UTF-8 Plain Text
Заголовок : Full, Voronine
Язык : Russian
Default : Нет
Forced : Нет
Текст #2
Идентификатор : 5
Формат : UTF-8
Идентификатор кодека : S_TEXT/UTF8
Идентификатор кодека/Информация : UTF-8 Plain Text
Заголовок : Full, BD US
Язык : English
Default : Нет
Forced : Нет
Текст #3
Идентификатор : 6
Формат : UTF-8
Идентификатор кодека : S_TEXT/UTF8
Идентификатор кодека/Информация : UTF-8 Plain Text
Заголовок : SDH, BD US
Язык : English
Default : Нет
Forced : Нет
Меню
00:00:00.000 : :Chapter 01
00:05:05.179 : :Chapter 02
00:13:04.658 : :Chapter 03
00:20:31.188 : :Chapter 04
00:27:02.579 : :Chapter 05
00:32:38.039 : :Chapter 06
00:39:35.331 : :Chapter 07
00:49:06.151 : :Chapter 08
00:55:22.027 : :Chapter 09
01:01:41.239 : :Chapter 10
01:09:18.654 : :Chapter 11
01:17:03.035 : :Chapter 12
01:22:09.841 : :Chapter 13
01:27:51.557 : :Chapter 14
01:36:41.587 : :Chapter 15
01:45:14.099 : :Chapter 16
01:48:46.645 : :Chapter 17

Log x264:

x264 [info]: frame I:1341 Avg QP:14.89 size:154543
x264 [info]: frame P:50477 Avg QP:17.83 size: 72681
x264 [info]: frame B:115098 Avg QP:19.60 size: 30558

Скриншоты



_________________
Не стоит обращать внимания на отсутствие сидов на моих раздачах. Все мои релизы мультитрекерные - нет сидов, включите DHT.
За релизами в HD качестве обращайтесь в личку, либо отписывайтесь в теме.


Последний раз редактировалось: TiZAr (2013-09-14 01:25), всего редактировалось 1 раз
[Торрент-статистика]
[Профиль]  [ЛС] 

TiZAr ®

Пол:

Стаж: 3 года 3 месяца

Сообщений: 836

Репутация: 1157 [+] [-]

Откуда: Россия

Пост 14-Сен-2013 01:24 (спустя 4 дня)

[Цитировать] 

Торрент обновлен.
Причина: замена рипа с Чистым звуком на Лицензию от Paramount Pictures.

_________________
Не стоит обращать внимания на отсутствие сидов на моих раздачах. Все мои релизы мультитрекерные - нет сидов, включите DHT.
За релизами в HD качестве обращайтесь в личку, либо отписывайтесь в теме.
[Торрент-статистика]
[Профиль]  [ЛС] 
Показать сообщения:    
Ответить на тему

Текущее время: Сегодня 16:34

Часовой пояс: GMT + 4



Вы не можете начинать темы
Вы не можете отвечать на сообщения
Вы не можете редактировать свои сообщения
Вы не можете удалять свои сообщения
Вы не можете голосовать в опросах
Вы не можете прикреплять файлы к сообщениям
Вы не можете скачивать файлы