Гарри Поттер и Партия Ленина / Harry Potter and the Party Of Lenin (Дэвид Йейтс / David Yates) [2007, USA, комедия, HDRip] 1.1 DVO Gremlin Creative Studio

Ответить на тему
 
Автор
Сообщение

kaliasa ®

Пол:

Стаж: 4 года 8 месяцев

Сообщений: 113

Репутация: 84 [+] [-]

Пост 26-Авг-2013 09:54

[Цитировать] 

-GREMLIN CREATIVE STUDIO
представляет
-Гарри Поттер и Партия Ленина / Harry Potter and the Party Of Lenin / 1.1
Страна: USA
Жанр: комедия
Год выпуска: 2007 (2009)
Продолжительность: 02:09:04
Перевод: Профессиональный (двухголосый закадровый) Доп.инфо о переводе Gremlin Creative Studio
Cубтитры: нет-Режиссер: Дэвид Йейтс / David Yates-В ролях: Даниэл Редклифф, Эмма Уотсон, Руперт Гринт, Алан Рикман, Робби Колтрейн, Майкл Гэмбон, Брендан Глисон, Мэгги Смит, Фиона Шоу, Дэвид Тьюлис и др.-Описание: Гарри задолбало сидеть дома с назойливыми Дурслями. Он хочет поскорее отправиться на пятый учебный год в свою школу Хогвартс. К тому же, Гарри асболютно уверен, что, возродившись, лорд ДартМорт начнет действовать. Незамедлительно после событий на турнире Смерти В.И.Ленин созывает всех своих борцов против повелителя Ситхов в организацию, носящую грозное имя "Партия Ленина". И Гарри, явственно, не мог обойти ее стороной...-Доп. информация: перевод от "Gremlin Creative Studio", создателей "Гарри Поттер и Турнир смерти" , т.е. там полно всякой ругани, мата и пошлости. Ввиду этого, тем, кого не устраивает что-либо из вышесказанного, убедительная просьба НЕ КАЧАТЬ фильм, дабы не разводить демагогию в бестолковых постах.-p.s.: релиз состоялся 25 августа 2009г.
p.s.s.: версия 1.1
Официальный сайт
Сэмпл-Качество видео: HDRip
Формат видео: MKV
Видео: H264, 1280x528, 2.40:1, 23.976 fps, 2 970 Kbps
Аудио: AC-3, 48.0 KHz, 256 Kbps, Stereo (Front: L R), 16 bits-

MediaInfo

General
UniqueID : 148896732143386855064781810140842043145 (0x700477AE7306D2F81DB21B540A102709)
Complete name : X:\Harry_Potter_and_the_Party_of_Lenin_HDRip.mkv
Format : Matroska
File size : 2.91 GiB
Duration : 2h 9mn
Overall bit rate : 3 225 Kbps
Encoded date : UTC 2011-01-05 08:29:50
Writing application : mkvmerge v1.4.2 ('Jimi Thing') built on Apr 16 2005 13:58:15
Writing library : libebml v0.7.4 + libmatroska v0.7.6
Video
ID : 1
Format : AVC
Format/Info : Advanced Video Codec
Format profile : High@L3.1
Format settings, CABAC : Yes
Format settings, ReFrames : 3 frames
Codec ID : H264
Duration : 2h 9mn
Bit rate : 2 970 Kbps
Width : 1 280 pixels
Height : 528 pixels
Display aspect ratio : 2.40:1
Frame rate : 23.976 fps
Color space : YUV
Chroma subsampling : 4:2:0
Bit depth : 8 bits
Scan type : Progressive
Bits/(Pixel*Frame) : 0.183
Stream size : 2.62 GiB (90%)
Title : GCS. HP5. HDRip. v1.1
Writing library : x264 core 100 r1659kMod 57b2e56
Encoding settings : cabac=1 / ref=3 / deblock=1:0:0 / analyse=0x3:0x13 / me=umh / subme=7 / psy=1 / psy_rd=1.00:0.00 / mixed_ref=1 / me_range=16 / chroma_me=1 / trellis=1 / 8x8dct=1 / cqm=0 / deadzone=21,11 / fast_pskip=1 / chroma_qp_offset=-2 / threads=2 / sliced_threads=1 / slices=2 / nr=0 / decimate=1 / interlaced=0 / constrained_intra=0 / bframes=0 / weightp=2 / keyint=250 / keyint_min=25 / scenecut=40 / intra_refresh=0 / rc=abr / mbtree=0 / bitrate=2970 / ratetol=1.0 / qcomp=0.60 / qpmin=10 / qpmax=51 / qpstep=4 / ip_ratio=1.40 / aq=1:1.00
Audio
ID : 2
Format : AC-3
Format/Info : Audio Coding 3
Mode extension : CM (complete main)
Codec ID : A_AC3
Duration : 2h 9mn
Bit rate mode : Constant
Bit rate : 256 Kbps
Channel(s) : 2 channels
Channel positions : Front: L R
Sampling rate : 48.0 KHz
Bit depth : 16 bits
Compression mode : Lossy
Stream size : 236 MiB (8%)
Title : GCS Translate. AC3 Stereo 256kb/s
Language : Russian
-

Скриншот c названием фильма

Скриншоты

- -
[Торрент-статистика]
[Профиль]  [ЛС] 
Показать сообщения:    
Ответить на тему

Текущее время: Сегодня 22:12

Часовой пояс: GMT + 4



Вы не можете начинать темы
Вы не можете отвечать на сообщения
Вы не можете редактировать свои сообщения
Вы не можете удалять свои сообщения
Вы не можете голосовать в опросах
Вы не можете прикреплять файлы к сообщениям
Вы не можете скачивать файлы