Гарри Поттер и Фалософский камень. Новое начало [2013, комедия, BDRip 1080p] DVO Gremlin Creative Studio

Ответить на тему
 
Автор
Сообщение

kaliasa ®

Пол:

Стаж: 9 лет

Сообщений: 112

Репутация: 87 [+] [-]

Пост 26-Авг-2013 00:03

[Цитировать] 

-GREMLIN CREATIVE STUDIO
представляет
-Гарри Поттер и Фалософский камень. Новое начало
Год выпуска: 2013 (Оригинал - 2001)
Страна: США
Жанр: комедия
Продолжительность: 02:31:39
Перевод: Профессиональный (дубляж) Доп.инфо о переводе Gremlin Creative Studio
Cубтитры: нет-Режиссер: Крис Коламбус / Chris Columbus-В ролях: Гарри Поттер, Рыжий Петух, Стерва Грэйнджер, Дарт Морт, Хагрид, Ленин и др.-Описание: "Мальчик, который чуть не сдох"
Жизнь десятилетнего Гарри Поттера, мальчика с нетрадиционной сексуальной ориентацией, была непроста: приёмные родители постоянно его унижали, морили голодом, а названый брат не упускал ни единой возможности злостно подколоть беднягу. Но вскоре вялое существование нарушили письма с приглашением учиться в магической ЛГБТ-школе Хогвартс. Куда Гарри соглашается ехать, хоть и с некоторым опасением. Уже в пути он находит себе первых друзей, с которыми в дальнейшем переживёт самые счастливые и самые трудные моменты своей жизни.
Учёба в Хогвартсе бьёт ключом: интересные занятия по магии и половому воспитанию, матчи по самой честной и самой прозрачной в мире спортивной игре "квиддич", стычки с учениками с параллельных потоков, прогулы, алкоголь, наркотики, первая любовь... Однако в школе начинают происходить странные события, напрямую связанные с жизнью Гарри и с неким Фалософским камнем, информация о котором строго засекречена. Вооружившись верными друзьями и фаллочкой, юный волшебник намеревается раскрыть все тайны, надавать люлей и извлечь для себя максимальную выгоду. Что же у него получится?
-Доп. информация: ВНИМАНИЕ! В переводе присутствуют мат, жесткий стеб, черный юмор, пошлятина и разная нецензурщина. Ввиду этого тем, кого не устраивает что-либо из вышесказанного, убедительная просьба НЕ КАЧАТЬ фильм, дабы не разводить демагогию в бестолковых постах.-p.s.: релиз состоялся 24 августа 2013г.-Официальный сайт студии-Качество: BDRip
Формат: MKV
Видео кодек: H.264
Аудио кодек: AC3
Видео: H264, 1980x816, 2.40:1, 23.976 fps, 8 759 Kbps
Аудио: AC-3, 48 KHz, 448 Kbps, Stereo (Front: L R), 16 bits-Семпл-

MediaInfo

Complete name : X:\Гарри Поттер(1) и Фалософский Камень. Новое Начало_BDRip.1080.mkv
Format : Matroska
Format version : Version 1
File size : 9.71 GiB
Duration : 2h 31mn
Overall bit rate : 9 171 Kbps
Encoded date : UTC 2013-08-18 15:59:55
Writing application : mkvmerge v2.4.1 ('Use Me') built on Dec 5 2008 18:30:05
Writing library : libebml v0.7.7 + libmatroska v0.8.1
Video
ID : 1
Format : AVC
Format/Info : Advanced Video Codec
Format profile : High@L4.0
Format settings, CABAC : Yes
Format settings, ReFrames : 4 frames
Codec ID : V_MPEG4/ISO/AVC
Duration : 2h 31mn
Bit rate : 8 759 Kbps
Width : 1 980 pixels
Height : 816 pixels
Display aspect ratio : 2.40:1
Frame rate mode : Constant
Frame rate : 23.976 fps
Color space : YUV
Chroma subsampling : 4:2:0
Bit depth : 8 bits
Scan type : Progressive
Bits/(Pixel*Frame) : 0.226
Stream size : 9.05 GiB (93%)
Writing library : x264 core 108 r1790bm 8eaf8a6
Encoding settings : cabac=1 / ref=3 / deblock=1:0:0 / analyse=0x3:0x113 / me=hex / subme=7 / psy=1 / psy_rd=1.00:0.00 / mixed_ref=1 / me_range=16 / chroma_me=1 / trellis=1 / 8x8dct=1 / cqm=0 / deadzone=21,11 / fast_pskip=1 / chroma_qp_offset=-2 / threads=12 / sliced_threads=0 / nr=0 / decimate=1 / interlaced=0 / constrained_intra=0 / bframes=3 / b_pyramid=2 / b_adapt=1 / b_bias=0 / direct=1 / weightb=1 / open_gop=0 / weightp=2 / keyint=250 / keyint_min=23 / scenecut=40 / intra_refresh=0 / rc_lookahead=40 / rc=abr / mbtree=1 / bitrate=8759 / ratetol=1.0 / qcomp=0.60 / qpmin=10 / qpmax=51 / qpstep=4 / ip_ratio=1.40 / aq=1:1.00
Default : Yes
Forced : No
Audio
ID : 2
Format : AC-3
Format/Info : Audio Coding 3
Mode extension : CM (complete main)
Format settings, Endianness : Big
Codec ID : A_AC3
Duration : 2h 31mn
Bit rate mode : Constant
Bit rate : 448 Kbps
Channel(s) : 2 channels
Channel positions : Front: L R
Sampling rate : 48.0 KHz
Bit depth : 16 bits
Compression mode : Lossy
Stream size : 486 MiB (5%)
Title : GCS
Language : Russian
Default : Yes
Forced : No
-

Скриншоты

- -
[Торрент-статистика]
[Профиль]  [ЛС] 
Показать сообщения:    
Ответить на тему

Текущее время: Сегодня 05:39

Часовой пояс: GMT + 4



Вы не можете начинать темы
Вы не можете отвечать на сообщения
Вы не можете редактировать свои сообщения
Вы не можете удалять свои сообщения
Вы не можете голосовать в опросах
Вы не можете прикреплять файлы к сообщениям
Вы не можете скачивать файлы