Гитлер: Восхождение дьявола / Hitler: The Rise of Evil (Кристиан Дюге) [2003 г., Биография,исторический,военный, BDRip-AVC]

Ответить на тему
 
Автор
Сообщение

3232fox ®

Пол:

Стаж: 4 года 6 месяцев

Сообщений: 614

Репутация: 423 [+] [-]

Откуда: Крым,Россия

Пост 01-Авг-2013 01:04

[Цитировать] 

-Гитлер: Восхождение дьявола / Hitler: The Rise of Evil--Год выпуска: 2003
Страна: Канада, США
Жанр: Биография,исторический,военный
Продолжительность: 2:59
Перевод: Профессиональный (двухголосый, закадровый)--Режиссер: Кристиан Дюге--В ролях: Питер О'Тул, Роберт Карлайл, Джулианна Маргулис, Лив Шрайбер, Зои Телфорд, Теренс Харви, Стоккард Чэннинг, Петер Стормаре, Мэтью Модайн, Джена Мэлоун, Фридрих фон Тун--Описание: Авторы фильма решили показать зрителю историю жизни одного из самых известных тиранов в истории человечества – Адольфа Гитлера. Действия фильма начинаются в конце Первой Мировой войны, когда Адольф еще далек от первых постов страны и от политике вообще. Молодой Гитлер сделал в Германии стремительную карьеру, от никому неизвестного оратора, пытавшегося «зажигать» народ в ночных заведениях, до Фюрера, единолично управляющего страной. Путь фашисткой партии оказался сложен, но ораторский гений Гитлера позволил фашистам прийти к власти.--«Единственное что необходимо для триумфа Зла - это что бы хорошие люди ничего не делали...» Edmund Burke-- --Тип релиза: BDRip-AVC
Контейнер: MKV
Видео кодек: H264 (AVC)
Аудио кодек: AC3 (Dolby Digital)
Видео: H.264, 1088х612 (16/9), 24 fps, ~2700 kbps, 0.16 b/px
Аудио: Аудио №1: AC3, 48.0 KHz, 6 ch., ~384 kbps |Rus|--

Скриншоты

MI

General
UniqueID : 203764784008961505090839553045798150049 (0x994BAB7F729427EEBD6D7265ACAD5FA1)
Complete name : G:\видео\Hitler.TheRiseofEvil.BDRip-AVC.mkv
Format : Matroska
File size : 4.26 GiB
Duration : 3h 4mn
Overall bit rate : 3 310 Kbps
Movie name : Гитлер: Восхождение дьявола / Hitler: The Rise of Evil (2003) [BDRip-AVC by jlиС, rutracker.org]
Encoded date : UTC 2011-06-05 13:27:57
Writing application : mkvmerge v2.9.0 ('Moanin'') built on May 22 2009 17:46:31
Writing library : libebml v0.7.7 + libmatroska v0.8.1
Video
ID : 1
Format : AVC
Format/Info : Advanced Video Codec
Format profile : High@L4.1
Format settings, CABAC : Yes
Format settings, ReFrames : 9 frames
Codec ID : V_MPEG4/ISO/AVC
Duration : 3h 4mn
Bit rate : 2 700 Kbps
Width : 1 088 pixels
Height : 612 pixels
Display aspect ratio : 16:9
Frame rate : 24.000 fps
Color space : YUV
Chroma subsampling : 4:2:0
Bit depth : 8 bits
Scan type : Progressive
Bits/(Pixel*Frame) : 0.169
Stream size : 3.39 GiB (80%)
Title : BDRip-AVC by jlиС, rutracker.org
Writing library : x264 core 113 r1884 7313bb5
Encoding settings : cabac=1 / ref=9 / deblock=1:-2:-1 / analyse=0x3:0x113 / me=umh / subme=10 / psy=1 / psy_rd=0.90:0.00 / mixed_ref=1 / me_range=32 / chroma_me=1 / trellis=2 / 8x8dct=1 / cqm=0 / deadzone=21,11 / fast_pskip=1 / chroma_qp_offset=-2 / threads=3 / sliced_threads=0 / nr=0 / decimate=1 / interlaced=0 / constrained_intra=0 / bframes=8 / b_pyramid=2 / b_adapt=2 / b_bias=0 / direct=3 / weightb=1 / open_gop=0 / weightp=2 / keyint=250 / keyint_min=24 / scenecut=45 / intra_refresh=0 / rc_lookahead=0 / rc=2pass / mbtree=0 / bitrate=2700 / ratetol=1.0 / qcomp=0.65 / qpmin=0 / qpmax=69 / qpstep=4 / cplxblur=20.0 / qblur=0.5 / vbv_maxrate=50000 / vbv_bufsize=62500 / nal_hrd=none / ip_ratio=1.40 / pb_ratio=1.30 / aq=2:1.00
Matrix coefficients : BT.709-5, BT.1361, IEC 61966-2-4 709, SMPTE RP177
Audio #1
ID : 2
Format : AC-3
Format/Info : Audio Coding 3
Mode extension : CM (complete main)
Codec ID : A_AC3
Duration : 3h 4mn
Bit rate mode : Constant
Bit rate : 384 Kbps
Channel(s) : 6 channels
Channel positions : Front: L C R, Side: L R, LFE
Sampling rate : 48.0 KHz
Bit depth : 16 bits
Compression mode : Lossy
Stream size : 506 MiB (12%)
Title : Профессиональный (двухголосый)
Language : Russian
Audio #2
ID : 3
Format : AC-3
Format/Info : Audio Coding 3
Mode extension : CM (complete main)
Codec ID : A_AC3
Duration : 3h 4mn
Bit rate mode : Constant
Bit rate : 224 Kbps
Channel(s) : 2 channels
Channel positions : Front: L R
Sampling rate : 48.0 KHz
Bit depth : 16 bits
Compression mode : Lossy
Stream size : 295 MiB (7%)
Title : Original track
Language : English
Text
ID : 4
Format : UTF-8
Codec ID : S_TEXT/UTF8
Codec ID/Info : UTF-8 Plain Text
Language : English
[Торрент-статистика]
[Профиль]  [ЛС] 
Показать сообщения:    
Ответить на тему

Текущее время: Сегодня 16:16

Часовой пояс: GMT + 4



Вы не можете начинать темы
Вы не можете отвечать на сообщения
Вы не можете редактировать свои сообщения
Вы не можете удалять свои сообщения
Вы не можете голосовать в опросах
Вы не можете прикреплять файлы к сообщениям
Вы не можете скачивать файлы