1492: Завоевание рая / 1492: Conquest of Paradise (Ридли Скотт) [1992 г., Драма, приключения, биография, история, BDRip]

Ответить на тему
 
Автор
Сообщение

alien.09 ®

Пол:

Стаж: 4 года 7 месяцев

Сообщений: 753

Репутация: 562 [+] [-]

Пост 30-Июн-2013 21:03

[Цитировать] 

--1492: Завоевание рая / 1492: Conquest of Paradise--Год выпуска: 1992
Страна: Франция, Испания
Жанр: Драма, приключения, биография, история
Продолжительность: 02:29:25
Перевод: Профессиональный (многоголосый, закадровый)-Режиссер: Ридли Скотт-В ролях: Жерар Депардье, Арманд Ассанте, Сигурни Уивер, Лорен Дин, Анхела Молина, Фернандо Рей, Майкл Уинкотт, Чеки Карио, Кевин Данн, Фрэнк Ланджелла--Описание: Великая мечта, ставшая реальностью всемирной истории. Генуэзский мореплаватель Христофор Колумб всю жизнь мечтал открыть новые пути в Индию. Много лет все только смеялись над его «безумными» проектами проложить морской маршрут на Восток через Запад. И все же Колумб смог убедить испанскую королеву Изабеллу профинансировать его экспедицию в далекие страны, богатые золотом и пряностями. Снарядив три небольшие каравеллы, Колумб отправился навстречу неизведанному… В этих великих путешествиях проявилось все величие и страстность эпохи, когда творилась История. Отвага и ослепление, триумф и отчаяние, высокомерие Старого и невинность Нового света, «завоевание рая», начало новой эры…-- --Тип релиза: BDRip
Контейнер: MKV
Видео кодек: H264 (AVC)
Аудио кодек: AC3 (Dolby Digital)
Видео: AVC at 3509 Кбит/сек, 1280 x 544 (2.353) at 25.000 fps
Аудио: AC-3 at 384 Кбит/сек, 6 каналов, 48,0 КГц

MI Report

Общее
Уникальный идентификатор : 197390470236563822584521044383178412426 (0x94800590866B0A53ABE1ADA6406FD18A)
Полное имя : C:\Users\Gary\Внеха\1492 Завоевание рая.mkv
Формат : Matroska
Версия формата : Version 4 / Version 2
Размер файла : 4,05 Гбайт
Продолжительность : 2 ч. 29 м.
Общий поток : 3878 Кбит/сек
Название фильма : 1492: Завоевание рая (1992 BDRip-720p) RG BrodimCom
Дата кодирования : UTC 2013-06-28 02:11:20
Программа кодирования : mkvmerge v6.2.0 ('Promised Land') built on Apr 28 2013 12:22:01
Библиотека кодирования : XviD4PSP 6.0 / 54.29.105
Видео
Идентификатор : 1
Формат : AVC
Формат/Информация : Advanced Video Codec
Профиль формата : Main@L4.1
Параметр CABAC формата : Да
Параметр ReFrames формата : 3 кадра
Идентификатор кодека : V_MPEG4/ISO/AVC
Продолжительность : 2 ч. 29 м.
Битрейт : 3509 Кбит/сек
Ширина : 1280 пикселей
Высота : 544 пикселя
Соотношение сторон : 2,35:1
Режим частоты кадров : Постоянный
Частота кадров : 25,000 кадров/сек
Цветовое пространство : YUV
Субдискретизация насыщенности : 4:2:0
Битовая глубина : 8 бит
Тип развёртки : Прогрессивная
Бит/(Пиксели*Кадры) : 0.202
Размер потока : 3,57 Гбайт (88%)
Заголовок : 1492: Завоевание рая RG BrodimCom
Библиотека кодирования : x264 core 128 r2216M 198a7ea
Настройки программы : cabac=1 / ref=3 / deblock=1:0:0 / analyse=0x1:0x131 / me=hex / subme=7 / psy=1 / psy_rd=1.00:0.20 / mixed_ref=1 / me_range=16 / chroma_me=1 / trellis=1 / 8x8dct=0 / cqm=0 / deadzone=21,11 / fast_pskip=1 / chroma_qp_offset=-3 / threads=8 / lookahead_threads=1 / sliced_threads=0 / nr=0 / decimate=1 / interlaced=0 / bluray_compat=0 / constrained_intra=0 / bframes=3 / b_pyramid=0 / b_adapt=2 / b_bias=0 / direct=3 / weightb=1 / open_gop=0 / weightp=0 / keyint=250 / keyint_min=25 / scenecut=40 / intra_refresh=0 / rc_lookahead=40 / rc=2pass / mbtree=1 / bitrate=3509 / ratetol=1.0 / qcomp=0.60 / qpmin=10 / qpmax=51 / qpstep=4 / cplxblur=20.0 / qblur=0.5 / vbv_maxrate=5000 / vbv_bufsize=1835 / nal_hrd=none / ip_ratio=1.40 / aq=1:1.00
Язык : English
Default : Да
Forced : Нет
Аудио
Идентификатор : 2
Формат : AC-3
Формат/Информация : Audio Coding 3
Расширение режима : CM (complete main)
Параметр Endianness формата : Big
Идентификатор кодека : A_AC3
Продолжительность : 2 ч. 29 м.
Вид битрейта : Постоянный
Битрейт : 384 Кбит/сек
Каналы : 6 каналов
Расположение каналов : Front: L C R, Side: L R, LFE
Частота : 48,0 КГц
Битовая глубина : 16 бит
Метод сжатия : С потерями
Задержка видео : 27 мс.
Размер потока : 410 Мбайт (10%)
Заголовок : AC-3 at 384 Кбит/сек, 6 каналов, 48,0 КГц
Язык : Russian
Default : Да
Forced : Нет

Скриншоты


_________________
Правообладатели, убейтесь об эту надпись.
[Торрент-статистика]
[Профиль]  [ЛС] 

Asadoff

Пол:

Стаж: 5 лет 10 месяцев

Сообщений: 91

Репутация: 27 [+] [-]

Пост 01-Июл-2013 14:13 (спустя 17 часов)

[Цитировать] 

Фильм стоющий для тех, кто ценит классику, приключения и музыку Вангелиса (лучший саундтрек, люблю слушать отдельно в виде альбома mp3)

_________________
Это я что-то делаю не так, или только моя голова задаёт глупые вопросы? (c)
[Торрент-статистика]
[Профиль]  [ЛС] 

honey

Стаж: 4 года 3 месяца

Сообщений: 1

Репутация: 0 [+] [-]

Пост 15-Авг-2013 10:37 (спустя 1 месяц 13 дней)

[Цитировать] 

i would like to appreciate you for sharing such a great info with us

_________________
testking CAS-001 testking CAS-001
Testking ccna certification Testking ccna certification
[Торрент-статистика]
[Профиль]  [ЛС] 

leon024

Пол:

Стаж: 4 года 6 месяцев

Сообщений: 1156

Репутация: 634 [+] [-]

Откуда: Россия

Пост 15-Авг-2013 10:42 (спустя 5 минут)

[Цитировать] 

32869i would like to appreciate you for sharing such a great info with us
Skachivayte.Ili so you do not know how?
[Торрент-статистика]
[Профиль]  [ЛС] 
Показать сообщения:    
Ответить на тему

Текущее время: Сегодня 04:05

Часовой пояс: GMT + 4



Вы не можете начинать темы
Вы не можете отвечать на сообщения
Вы не можете редактировать свои сообщения
Вы не можете удалять свои сообщения
Вы не можете голосовать в опросах
Вы не можете прикреплять файлы к сообщениям
Вы не можете скачивать файлы