Библиотекарь: трилогия / The Librarian: trilogy (Питер Уинтер, Джонатан Фрайкс) [2004 г., приключения, фэнтези, комедия, BDRip 720p]

Ответить на тему
 
Автор
Сообщение

alien.09 ®

Пол:

Стаж: 4 года 5 месяцев

Сообщений: 753

Репутация: 562 [+] [-]

Пост 26-Июн-2013 17:59

[Цитировать] 

--Библиотекарь: трилогия / The Librarian: trilogy--Год выпуска: 2004
Страна: США
Жанр: приключения, фэнтези, комедия
Продолжительность: 01:30:13; 01:32:03; 01:30:10
Перевод: Профессиональный (многоголосый, закадровый) Союз Видео-Режиссер: Питер Уинтер, Джонатан Фрайкс-Тип релиза: BDRip-720p
Контейнер: MKV
Видео кодек: H264 (AVC)
Аудио кодек: AC3 (Dolby Digital)
--

Библиотекарь: В поисках копья судьбы

-- --Библиотекарь: В поисках копья судьбы / название: The Librarian: Quest for the Spear
Год выпуска: 2004
Страна: США
Жанр: приключения, фэнтези, комедия
Продолжительность: 01:30:13
Перевод: профессиональный (многоголосый закадровый) Союз Видео
Режиссер: Питер Уинтер
В ролях: Ноа Уайл, Кайл МакЛаклэн, Боб Ньюхарт, Келли Ху, Лиза Бреннер, Джейн Кертин
Описание: Из тайных хранилищ Нью-Йоркской Публичной библиотеки похищен магический артефакт — фрагмент Копья Судьбы. Библиотекарь Флинн Карсен должен вернуть его любой ценой и заодно найти оставшиеся два фрагмента прежде, чем ими завладеют злодеи...-- --Тип релиза: BDRip-720p
Контейнер: MKV
Видео кодек: H264 (AVC)
Аудио кодек: AC3 (Dolby Digital)
Видео: AVC at 4340 Кбит/сек, 1280 x 720 (1.778) at 25.000 fps
Аудио: AC-3 at 384 Кбит/сек, 6 каналов, 48,0 КГц
Чаптеры: Есть

MI Report

Общее
Уникальный идентификатор : 193580406778864080899668293673285886645 (0x91A23AEECB450FB59D8E029A7004A2B5)
Полное имя : C:\Users\Gary\Desktop\Библиотекарь трилогия\Библиотекарь В поисках копья судьбы.mkv
Формат : Matroska
Версия формата : Version 4 / Version 2
Размер файла : 3,04 Гбайт
Продолжительность : 1 ч. 30 м.
Общий поток : 4820 Кбит/сек
Название фильма : Библиотекарь: В поисках копья судьбы (2004 BDRip-720p) RG BrodimCom
Дата кодирования : UTC 2013-06-25 17:39:50
Программа кодирования : mkvmerge v6.2.0 ('Promised Land') built on Apr 28 2013 12:22:01
Библиотека кодирования : XviD4PSP 6.0 / 54.29.105
Видео
Идентификатор : 1
Формат : AVC
Формат/Информация : Advanced Video Codec
Профиль формата : High@L4.1
Параметр CABAC формата : Да
Параметр ReFrames формата : 3 кадра
Идентификатор кодека : V_MPEG4/ISO/AVC
Продолжительность : 1 ч. 30 м.
Битрейт : 4340 Кбит/сек
Номинальный битрейт : 4700 Кбит/сек
Ширина : 1280 пикселей
Высота : 720 пикселей
Соотношение сторон : 16:9
Режим частоты кадров : Постоянный
Частота кадров : 25,000 кадров/сек
Цветовое пространство : YUV
Субдискретизация насыщенности : 4:2:0
Битовая глубина : 8 бит
Тип развёртки : Прогрессивная
Бит/(Пиксели*Кадры) : 0.188
Размер потока : 2,74 Гбайт (90%)
Заголовок : Библиотекарь: В поисках копья судьбы
Библиотека кодирования : x264 core 128 r2216M 198a7ea
Настройки программы : cabac=1 / ref=3 / deblock=1:0:0 / analyse=0x3:0x133 / me=hex / subme=7 / psy=1 / psy_rd=1.00:0.20 / mixed_ref=1 / me_range=16 / chroma_me=1 / trellis=1 / 8x8dct=1 / cqm=0 / deadzone=21,11 / fast_pskip=1 / chroma_qp_offset=-3 / threads=8 / lookahead_threads=1 / sliced_threads=0 / nr=0 / decimate=1 / interlaced=0 / bluray_compat=0 / constrained_intra=0 / bframes=3 / b_pyramid=1 / b_adapt=2 / b_bias=0 / direct=3 / weightb=1 / open_gop=0 / weightp=2 / keyint=250 / keyint_min=25 / scenecut=40 / intra_refresh=0 / rc_lookahead=40 / rc=cbr / mbtree=1 / bitrate=4700 / ratetol=1.0 / qcomp=0.60 / qpmin=10 / qpmax=51 / qpstep=4 / vbv_maxrate=4700 / vbv_bufsize=4700 / nal_hrd=none / ip_ratio=1.40 / aq=1:1.00
Язык : English
Default : Да
Forced : Нет
Аудио
Идентификатор : 2
Формат : AC-3
Формат/Информация : Audio Coding 3
Расширение режима : CM (complete main)
Параметр Endianness формата : Big
Идентификатор кодека : A_AC3
Продолжительность : 1 ч. 30 м.
Вид битрейта : Постоянный
Битрейт : 384 Кбит/сек
Каналы : 6 каналов
Расположение каналов : Front: L C R, Side: L R, LFE
Частота : 48,0 КГц
Битовая глубина : 16 бит
Метод сжатия : С потерями
Задержка видео : 27 мс.
Размер потока : 248 Мбайт (8%)
Заголовок : AVC at 4341 Кбит/сек, 6 каналов, 48,0 КГц, ru
Язык : Russian
Default : Да
Forced : Нет
Меню
00:00:00.000 : :Chapter 01
00:06:09.919 : :Chapter 02
00:10:14.880 : :Chapter 03
00:16:22.480 : :Chapter 04
00:21:47.920 : :Chapter 05
00:29:30.719 : :Chapter 06
00:37:35.319 : :Chapter 07
00:43:01.239 : :Chapter 08
00:48:54.399 : :Chapter 09
00:53:09.760 : :Chapter 10
00:58:38.320 : :Chapter 11
01:04:20.960 : :Chapter 12
01:08:27.720 : :Chapter 13
01:11:56.120 : :Chapter 14
01:15:10.240 : :Chapter 15
01:21:14.120 : :Chapter 16
01:24:28.720 : :Chapter 17
01:28:07.360 : :Chapter 18
01:30:11.640 : :Chapter 19

Скриншоты

Библиотекарь 2: Возвращение в копи царя соломона

-- --Библиотекарь 2: Возвращение в копи царя соломона / The Librarian: Return to King Solomon's Mines--Год выпуска: 2006
Страна: США
Жанр: приключения, фэнтези, комедия
Продолжительность: 01:32:03
Перевод: профессиональный (многоголосый закадровый) Союз Видео-Режиссер: Джонатан Фрайкс-В ролях: Ной Уайл, Габриэлль Анвар, Боб Ньюхарт, Джейн Куртин, Олимпия Дукакис, Эрик Эвари, Хаким Кае-Казим
Описание: Флин Карсен, интеллигентный юноша, сотрудник Нью Йоркской библиотеки. Но в его душе всегда жила страсть к приключениям, тайнам и всему тому, чем грезит любой мальчишка. Однажды, ему на глаза попадается интереснейший труд о легендарных Копях Царя Соломона. Флин решает найти мифические сокровища, променяв затхлый воздух помещения и книжных клопов на дух романтики и авантюризма...-- --Тип релиза: BDRip-720p
Контейнер: MKV
Видео кодек: H264 (AVC)
Аудио кодек: AC3 (Dolby Digital)
Видео: AVC at 4355 Кбит/сек, 1280 x 720 (1.778) at 23.976 fps
Аудио: AC-3 at 384 Кбит/сек, 6 каналов, 48,0 КГц
Чаптеры: Есть

MI Report

Общее
Уникальный идентификатор : 217316327836280697975003166927827334217 (0xA37D9A318A2D3F3EA5323C30F7A97449)
Полное имя : C:\Users\Gary\Desktop\Библиотекарь трилогия\Библиотекарь 2 Возвращение в копи царя соломона.mkv
Формат : Matroska
Версия формата : Version 4 / Version 2
Размер файла : 3,11 Гбайт
Продолжительность : 1 ч. 32 м.
Общий поток : 4835 Кбит/сек
Название фильма : Библиотекарь 2: Возвращение в копи царя соломона (2006 BDRip-720p) RG BrodimCom
Дата кодирования : UTC 2013-06-25 17:48:02
Программа кодирования : mkvmerge v6.2.0 ('Promised Land') built on Apr 28 2013 12:22:01
Библиотека кодирования : XviD4PSP 6.0 / 54.29.105
Видео
Идентификатор : 1
Формат : AVC
Формат/Информация : Advanced Video Codec
Профиль формата : High@L4.1
Параметр CABAC формата : Да
Параметр ReFrames формата : 3 кадра
Идентификатор кодека : V_MPEG4/ISO/AVC
Продолжительность : 1 ч. 32 м.
Битрейт : 4355 Кбит/сек
Номинальный битрейт : 4700 Кбит/сек
Ширина : 1280 пикселей
Высота : 720 пикселей
Соотношение сторон : 16:9
Режим частоты кадров : Постоянный
Частота кадров : 23,976 кадра/сек
Цветовое пространство : YUV
Субдискретизация насыщенности : 4:2:0
Битовая глубина : 8 бит
Тип развёртки : Прогрессивная
Бит/(Пиксели*Кадры) : 0.197
Размер потока : 2,80 Гбайт (90%)
Заголовок : Rip
Библиотека кодирования : x264 core 128 r2216M 198a7ea
Настройки программы : cabac=1 / ref=3 / deblock=1:0:0 / analyse=0x3:0x133 / me=hex / subme=7 / psy=1 / psy_rd=1.00:0.20 / mixed_ref=1 / me_range=16 / chroma_me=1 / trellis=1 / 8x8dct=1 / cqm=0 / deadzone=21,11 / fast_pskip=1 / chroma_qp_offset=-3 / threads=8 / lookahead_threads=1 / sliced_threads=0 / nr=0 / decimate=1 / interlaced=0 / bluray_compat=0 / constrained_intra=0 / bframes=3 / b_pyramid=1 / b_adapt=2 / b_bias=0 / direct=3 / weightb=1 / open_gop=0 / weightp=2 / keyint=230 / keyint_min=23 / scenecut=40 / intra_refresh=0 / rc_lookahead=40 / rc=cbr / mbtree=1 / bitrate=4700 / ratetol=1.0 / qcomp=0.60 / qpmin=10 / qpmax=51 / qpstep=4 / vbv_maxrate=4700 / vbv_bufsize=4700 / nal_hrd=none / ip_ratio=1.40 / aq=1:1.00
Язык : English
Default : Да
Forced : Нет
Аудио
Идентификатор : 2
Формат : AC-3
Формат/Информация : Audio Coding 3
Расширение режима : CM (complete main)
Параметр Endianness формата : Big
Идентификатор кодека : A_AC3
Продолжительность : 1 ч. 32 м.
Вид битрейта : Постоянный
Битрейт : 384 Кбит/сек
Каналы : 6 каналов
Расположение каналов : Front: L C R, Side: L R, LFE
Частота : 48,0 КГц
Битовая глубина : 16 бит
Метод сжатия : С потерями
Задержка видео : 27 мс.
Размер потока : 253 Мбайт (8%)
Заголовок : AC-3 at 384 Кбит/сек, 6 каналов, 48,0 КГц, ru
Язык : Russian
Default : Да
Forced : Нет
Меню
00:00:00.000 : :Chapter 01
00:06:43.111 : :Chapter 02
00:13:56.335 : :Chapter 03
00:20:16.173 : :Chapter 04
00:25:46.419 : :Chapter 05
00:30:01.424 : :Chapter 06
00:35:29.836 : :Chapter 07
00:40:03.484 : :Chapter 08
00:46:13.896 : :Chapter 09
00:49:05.609 : :Chapter 10
00:54:40.819 : :Chapter 11
01:01:43.700 : :Chapter 12
01:05:06.193 : :Chapter 13
01:10:26.805 : :Chapter 14
01:15:43.539 : :Chapter 15
01:19:39.149 : :Chapter 16
01:25:24.119 : :Chapter 17
01:32:02.918 : :Chapter 18

Скриншоты

Библиотекарь 3: Проклятье чаши Иуды

-- --Библиотекарь 3: Проклятье чаши Иуды / The Librarian: The Curse of the Judas--Год выпуска: 2008
Страна: США
Жанр: приключения, фэнтези, комедия
Продолжительность: 01:30:10
Перевод: профессиональный (многоголосый закадровый) Союз Видео-Режиссер: Джонатан Фрайкс-В ролях: Ноа Уайл, Боб Ньюхарт, Стана Катич, Джейн Куртин, Брюс Дэвисон, Джейсон Дуглас, Тед Олдермен
Описание: Третья часть захватывающих приключений Флина Карсена, в которой Флину вновь предстоит спасти мир, но уже от угрожающего всеобщему спокойствию воскрешения Графа Дракулы. Находясь в отпуске, Флин знакомится с умопомрачительной красоткой Симоной, которая совершенно неожиданно для Флина узнает в нем Библиотекаря и обращается к нему за помощью. Вместе они пытаются опередить русского злодея в поисках Чаши Иуды, которая одна способна воскресить к жизни великого вампира...-- --Тип релиза: BDRip-720p
Контейнер: MKV
Видео кодек: H264 (AVC)
Аудио кодек: AC3 (Dolby Digital)
Видео: AVC at 4417 Кбит/сек, 1280 x 720 (1.778) at 23.976 fps
Аудио: AC-3 at 384 Кбит/сек, 6 каналов, 48,0 КГц
Чаптеры: Есть

MI Report

Общее
Уникальный идентификатор : 193530976523465979362916758242214137220 (0x9198B5D541FA3506AA738B68165DCD84)
Полное имя : C:\Users\Gary\Desktop\Библиотекарь трилогия\Библиотекарь 3 Проклятье чаши Иуды.mkv
Формат : Matroska
Версия формата : Version 4 / Version 2
Размер файла : 3,09 Гбайт
Продолжительность : 1 ч. 30 м.
Общий поток : 4899 Кбит/сек
Название фильма : Библиотекарь 3: Проклятье чаши Иуды (2008 BDRip-720p) RG BrodimCom
Дата кодирования : UTC 2013-06-25 17:27:19
Программа кодирования : mkvmerge v6.2.0 ('Promised Land') built on Apr 28 2013 12:22:01
Библиотека кодирования : XviD4PSP 6.0 / 54.29.105
Видео
Идентификатор : 1
Формат : AVC
Формат/Информация : Advanced Video Codec
Профиль формата : High@L4.1
Параметр CABAC формата : Да
Параметр ReFrames формата : 3 кадра
Идентификатор кодека : V_MPEG4/ISO/AVC
Продолжительность : 1 ч. 30 м.
Битрейт : 4417 Кбит/сек
Номинальный битрейт : 4700 Кбит/сек
Ширина : 1280 пикселей
Высота : 720 пикселей
Соотношение сторон : 16:9
Режим частоты кадров : Постоянный
Частота кадров : 23,976 кадра/сек
Цветовое пространство : YUV
Субдискретизация насыщенности : 4:2:0
Битовая глубина : 8 бит
Тип развёртки : Прогрессивная
Бит/(Пиксели*Кадры) : 0.200
Размер потока : 2,78 Гбайт (90%)
Заголовок : Библиотекарь 3: Проклятье чаши Иуды
Библиотека кодирования : x264 core 128 r2216M 198a7ea
Настройки программы : cabac=1 / ref=3 / deblock=1:0:0 / analyse=0x3:0x133 / me=hex / subme=7 / psy=1 / psy_rd=1.00:0.20 / mixed_ref=1 / me_range=16 / chroma_me=1 / trellis=1 / 8x8dct=1 / cqm=0 / deadzone=21,11 / fast_pskip=1 / chroma_qp_offset=-3 / threads=8 / lookahead_threads=1 / sliced_threads=0 / nr=0 / decimate=1 / interlaced=0 / bluray_compat=0 / constrained_intra=0 / bframes=3 / b_pyramid=1 / b_adapt=2 / b_bias=0 / direct=3 / weightb=1 / open_gop=0 / weightp=2 / keyint=230 / keyint_min=23 / scenecut=40 / intra_refresh=0 / rc_lookahead=40 / rc=cbr / mbtree=1 / bitrate=4700 / ratetol=1.0 / qcomp=0.60 / qpmin=10 / qpmax=51 / qpstep=4 / vbv_maxrate=4700 / vbv_bufsize=4700 / nal_hrd=none / ip_ratio=1.40 / aq=1:1.00
Язык : English
Default : Да
Forced : Нет
Аудио
Идентификатор : 2
Формат : AC-3
Формат/Информация : Audio Coding 3
Расширение режима : CM (complete main)
Параметр Endianness формата : Big
Идентификатор кодека : A_AC3
Продолжительность : 1 ч. 30 м.
Вид битрейта : Постоянный
Битрейт : 384 Кбит/сек
Каналы : 6 каналов
Расположение каналов : Front: L C R, Side: L R, LFE
Частота : 48,0 КГц
Битовая глубина : 16 бит
Метод сжатия : С потерями
Задержка видео : 27 мс.
Размер потока : 248 Мбайт (8%)
Заголовок : AC-3 at 384 Кбит/сек, 6 каналов, 48,0 КГц, ru
Язык : Russian
Default : Да
Forced : Нет
Меню
00:00:00.000 : :Chapter 01
00:08:32.011 : :Chapter 02
00:15:56.955 : :Chapter 03
00:22:48.200 : :Chapter 04
00:27:34.319 : :Chapter 05
00:36:47.079 : :Chapter 06
00:44:46.850 : :Chapter 07
00:51:23.663 : :Chapter 08
00:58:51.903 : :Chapter 09
01:06:33.072 : :Chapter 10
01:12:23.046 : :Chapter 11
01:22:24.689 : :Chapter 12
01:29:33.618 : :Chapter 13
01:30:08.154 : :Chapter 14

Скриншоты


_________________
Правообладатели, убейтесь об эту надпись.
[Торрент-статистика]
[Профиль]  [ЛС] 
Показать сообщения:    
Ответить на тему

Текущее время: Сегодня 16:58

Часовой пояс: GMT + 4



Вы не можете начинать темы
Вы не можете отвечать на сообщения
Вы не можете редактировать свои сообщения
Вы не можете удалять свои сообщения
Вы не можете голосовать в опросах
Вы не можете прикреплять файлы к сообщениям
Вы не можете скачивать файлы