Джек – покоритель великанов / Jack the Giant Slayer (Брайан Сингер) [2013 г., Фэнтези, приключения, BDRip 720p] Лицензия

Ответить на тему
 
Автор
Сообщение

alien.09 ®

Пол:

Стаж: 4 года 4 месяца

Сообщений: 753

Репутация: 559 [+] [-]

Пост 19-Июн-2013 13:10

[Цитировать] 

--Джек – покоритель великанов / Jack the Giant Slayer--Год выпуска: 2013
Страна: США
Жанр: Фэнтези, приключения
Продолжительность: 01:54:21
Перевод: Профессиональный (полное дублирование) лицензия-Режиссер: Брайан Сингер-В ролях: Николас Холт, Элинор Томлинсон, Юэн МакГрегор, Стэнли Туччи, Иэн МакШейн, Билл Найи, Джон Кассир, Бен Дэниелс, Юэн Бремнер, Эдди Марсан, Кристофер Фэйрбэнк, Саймон Лоу-Описание: История начинается с похищения принцессы, что грозит нарушить хрупкий мир между людьми и великанами. Юный фермер возглавляет вылазку в царство гигантов в надежде спасти девушку...-- --Тип релиза: BDRip 720p
Контейнер: MKV
Видео кодек: H264 (AVC)
Аудио кодек: AC3 (Dolby Digital)
Видео: AVC at 3632 Кбит/сек, 1280 x 534 (2.367) at 23.976 fps
Аудио: AC-3 at 448 Кбит/сек, 6 каналов, 48,0 КГц
Чаптеры: Есть

MI Report

Общее
Уникальный идентификатор : 248783796989826780371580804600948122029 (0xBB2A0434C370FFAE85319D6DBAD8E1AD)
Полное имя : C:\Users\Gary\Внеха\Джек – покоритель великанов.mkv
Формат : Matroska
Версия формата : Version 4 / Version 2
Размер файла : 3,33 Гбайт
Продолжительность : 1 ч. 54 м.
Общий поток : 4162 Кбит/сек
Название фильма : Джек – покоритель великанов (2013 BDRip-720p) RG BrodimCom
Дата кодирования : UTC 2013-06-20 08:12:28
Программа кодирования : mkvmerge v6.2.0 ('Promised Land') built on Apr 28 2013 12:22:01
Библиотека кодирования : XviD4PSP 6.0 / 54.29.105
Видео
Идентификатор : 1
Формат : AVC
Формат/Информация : Advanced Video Codec
Профиль формата : Main@L4.1
Параметр CABAC формата : Да
Параметр ReFrames формата : 3 кадра
Идентификатор кодека : V_MPEG4/ISO/AVC
Продолжительность : 1 ч. 54 м.
Битрейт : 3632 Кбит/сек
Номинальный битрейт : 4509 Кбит/сек
Ширина : 1280 пикселей
Высота : 534 пикселя
Соотношение сторон : 2,35:1
Режим частоты кадров : Постоянный
Частота кадров : 23,976 кадра/сек
Цветовое пространство : YUV
Субдискретизация насыщенности : 4:2:0
Битовая глубина : 8 бит
Тип развёртки : Прогрессивная
Бит/(Пиксели*Кадры) : 0.222
Размер потока : 2,90 Гбайт (87%)
Заголовок : Джек – покоритель великанов (2013 BDRip-720p) RG BrodimCom
Библиотека кодирования : x264 core 128 r2216M 198a7ea
Настройки программы : cabac=1 / ref=3 / deblock=1:0:0 / analyse=0x1:0x131 / me=hex / subme=7 / psy=1 / psy_rd=1.00:0.20 / mixed_ref=1 / me_range=16 / chroma_me=1 / trellis=1 / 8x8dct=0 / cqm=0 / deadzone=21,11 / fast_pskip=1 / chroma_qp_offset=-3 / threads=8 / lookahead_threads=1 / sliced_threads=0 / nr=0 / decimate=1 / interlaced=0 / bluray_compat=0 / constrained_intra=0 / bframes=3 / b_pyramid=0 / b_adapt=2 / b_bias=0 / direct=3 / weightb=1 / open_gop=0 / weightp=0 / keyint=230 / keyint_min=23 / scenecut=40 / intra_refresh=0 / rc_lookahead=40 / rc=cbr / mbtree=1 / bitrate=4509 / ratetol=1.0 / qcomp=0.60 / qpmin=10 / qpmax=51 / qpstep=4 / vbv_maxrate=4509 / vbv_bufsize=1835 / nal_hrd=none / ip_ratio=1.40 / aq=1:1.00
Язык : English
Default : Да
Forced : Нет
Аудио
Идентификатор : 2
Формат : AC-3
Формат/Информация : Audio Coding 3
Расширение режима : CM (complete main)
Параметр Endianness формата : Big
Идентификатор кодека : A_AC3
Продолжительность : 1 ч. 54 м.
Вид битрейта : Постоянный
Битрейт : 448 Кбит/сек
Каналы : 6 каналов
Расположение каналов : Front: L C R, Side: L R, LFE
Частота : 48,0 КГц
Битовая глубина : 16 бит
Метод сжатия : С потерями
Задержка видео : 27 мс.
Размер потока : 366 Мбайт (11%)
Заголовок : AC-3 at 448 Кбит/сек, 6 каналов, 48,0 КГц
Язык : Russian
Default : Да
Forced : Нет
Меню
00:00:00.000 : en:Chapter 00
00:10:21.370 : en:Chapter 01
00:19:23.745 : en:Chapter 02
00:29:52.207 : en:Chapter 03
00:38:55.374 : en:Chapter 04
00:49:24.878 : en:Chapter 05
00:59:35.488 : en:Chapter 06
01:09:26.287 : en:Chapter 07
01:20:39.167 : en:Chapter 08
01:29:51.302 : en:Chapter 09
01:39:02.811 : en:Chapter 10
01:45:57.726 : en:Chapter 11

Скриншоты


_________________
Правообладатели, убейтесь об эту надпись.


Последний раз редактировалось: alien.09 (2013-06-20 23:41), всего редактировалось 2 раз(а)
[Торрент-статистика]
[Профиль]  [ЛС] 

alien.09 ®

Пол:

Стаж: 4 года 4 месяца

Сообщений: 753

Репутация: 559 [+] [-]

Пост 19-Июн-2013 22:28 (спустя 9 часов)

[Цитировать] 

тема косячная- минус шесть пикселов...
буду переделывать.

_________________
Правообладатели, убейтесь об эту надпись.
[Торрент-статистика]
[Профиль]  [ЛС] 

3232fox

Пол:

Стаж: 4 года 5 месяцев

Сообщений: 614

Репутация: 423 [+] [-]

Откуда: Крым,Россия

Пост 20-Июн-2013 22:35 (спустя 1 день)

[Цитировать] 

Нормально непарься
[Торрент-статистика]
[Профиль]  [ЛС] 

alien.09 ®

Пол:

Стаж: 4 года 4 месяца

Сообщений: 753

Репутация: 559 [+] [-]

Пост 20-Июн-2013 22:52 (спустя 17 минут)

[Цитировать] 

3232fox, наладил и перезалил, аспект вроде в норме.

_________________
Правообладатели, убейтесь об эту надпись.
[Торрент-статистика]
[Профиль]  [ЛС] 

3232fox

Пол:

Стаж: 4 года 5 месяцев

Сообщений: 614

Репутация: 423 [+] [-]

Откуда: Крым,Россия

Пост 21-Июн-2013 00:57 (спустя 2 часа 4 минуты)

[Цитировать] 

296873232fox, наладил и перезалил, аспект вроде в норме.
aa
[Торрент-статистика]
[Профиль]  [ЛС] 

Chet

Пол:

Стаж: 5 лет 9 месяцев

Сообщений: 1850

Репутация: 363 [+] [-]

Откуда: UA

Пост 21-Июн-2013 13:59 (спустя 13 часов)

[Цитировать] 

меня раздражает этот парниша, у которого за весь фильм прическа так ни разу и не растрепалась!
и когда это такую "алебарду" в руках держал???
[Торрент-статистика]
[Профиль]  [ЛС] 
Показать сообщения:    
Ответить на тему

Текущее время: Сегодня 09:57

Часовой пояс: GMT + 4



Вы не можете начинать темы
Вы не можете отвечать на сообщения
Вы не можете редактировать свои сообщения
Вы не можете удалять свои сообщения
Вы не можете голосовать в опросах
Вы не можете прикреплять файлы к сообщениям
Вы не можете скачивать файлы