Паркер / Parker (Тейлор Хэкфорд) [2013 г., триллер, криминал, BDRip 720p]

Ответить на тему
 
Автор
Сообщение

alien.09 ®

Пол:

Стаж: 3 года 7 месяцев

Сообщений: 748

Репутация: 550 [+] [-]

Пост 18-Июн-2013 20:18

[Цитировать] 

--Паркер / Parker--Год выпуска: 2013
Страна: США
Жанр: триллер, криминал
Продолжительность: 01:58:39
Перевод: Профессиональный (полное дублирование)-Режиссер: Тейлор Хэкфорд-В ролях: Джейсон Стэйтем, Дженнифер Лопез, Майкл Чиклис, Уенделл Пирс, Клифтон Коллинз мл., Бобби Каннавале, Пэтти ЛюПон, Карлос Карраско, Мика А. Хауптман, Эмма Бут-Описание: Главный герой - профессиональный вор, руководствующийся собственным моральным кодексом, но способный запросто отправить на тот свет любого, кто перейдет ему дорогу...-- --Тип релиза: BDRip 720p
Контейнер: MKV
Видео кодек: H264 (AVC)
Аудио кодек: AC3 (Dolby Digital)
Видео: AVC at 3704 Кбит/сек, 1280 x 528 (2.400) at 23.976 fps
Аудио: AC-3 at 448 Кбит/сек, 6 каналов, 48,0 КГц

MI Report

Общее
Уникальный идентификатор : 189442894290284195505701623386535690094 (0x8E855FD13D87BFF5AF43839B64B4FF6E)
Полное имя : C:\Users\Gary\Внеха\Паркер.mkv
Формат : Matroska
Версия формата : Version 4 / Version 2
Размер файла : 3,51 Гбайт
Продолжительность : 1 ч. 58 м.
Общий поток : 4236 Кбит/сек
Дата кодирования : UTC 2013-06-18 08:39:04
Программа кодирования : mkvmerge v6.2.0 ('Promised Land') built on Apr 28 2013 12:22:01
Библиотека кодирования : XviD4PSP 6.0 / 54.29.105
Видео
Идентификатор : 1
Формат : AVC
Формат/Информация : Advanced Video Codec
Профиль формата : Main@L4.1
Параметр CABAC формата : Да
Параметр ReFrames формата : 3 кадра
Идентификатор кодека : V_MPEG4/ISO/AVC
Продолжительность : 1 ч. 58 м.
Битрейт : 3704 Кбит/сек
Номинальный битрейт : 4509 Кбит/сек
Ширина : 1280 пикселей
Высота : 528 пикселей
Соотношение сторон : 2,40:1
Режим частоты кадров : Постоянный
Частота кадров : 23,976 кадра/сек
Цветовое пространство : YUV
Субдискретизация насыщенности : 4:2:0
Битовая глубина : 8 бит
Тип развёртки : Прогрессивная
Бит/(Пиксели*Кадры) : 0.229
Размер потока : 3,07 Гбайт (87%)
Заголовок : Паркер (2013 BDRip-720p) RG BrodimCom
Библиотека кодирования : x264 core 128 r2216M 198a7ea
Настройки программы : cabac=1 / ref=3 / deblock=1:0:0 / analyse=0x1:0x131 / me=hex / subme=7 / psy=1 / psy_rd=1.00:0.20 / mixed_ref=1 / me_range=16 / chroma_me=1 / trellis=1 / 8x8dct=0 / cqm=0 / deadzone=21,11 / fast_pskip=1 / chroma_qp_offset=-3 / threads=8 / lookahead_threads=1 / sliced_threads=0 / nr=0 / decimate=1 / interlaced=0 / bluray_compat=0 / constrained_intra=0 / bframes=3 / b_pyramid=0 / b_adapt=2 / b_bias=0 / direct=3 / weightb=1 / open_gop=0 / weightp=0 / keyint=230 / keyint_min=23 / scenecut=40 / intra_refresh=0 / rc_lookahead=40 / rc=cbr / mbtree=1 / bitrate=4509 / ratetol=1.0 / qcomp=0.60 / qpmin=10 / qpmax=51 / qpstep=4 / vbv_maxrate=4509 / vbv_bufsize=1835 / nal_hrd=none / ip_ratio=1.40 / aq=1:1.00
Default : Да
Forced : Нет
Аудио
Идентификатор : 2
Формат : AC-3
Формат/Информация : Audio Coding 3
Расширение режима : CM (complete main)
Параметр Endianness формата : Big
Идентификатор кодека : A_AC3
Продолжительность : 1 ч. 58 м.
Вид битрейта : Постоянный
Битрейт : 448 Кбит/сек
Каналы : 6 каналов
Расположение каналов : Front: L C R, Side: L R, LFE
Частота : 48,0 КГц
Битовая глубина : 16 бит
Метод сжатия : С потерями
Задержка видео : 27 мс.
Размер потока : 380 Мбайт (11%)
Заголовок : Русский, AC-3 at 448 Кбит/сек, 6 каналов, 48,0 КГц, RG BrodimCom
Язык : Russian
Default : Да
Forced : Нет
Меню
00:00:00.000 : en:Chapter 1
00:06:14.707 : en:Chapter 2
00:14:00.923 : en:Chapter 3
00:19:29.585 : en:Chapter 4
00:26:25.000 : en:Chapter 5
00:31:46.487 : en:Chapter 6
00:38:26.804 : en:Chapter 7
00:42:27.920 : en:Chapter 8
00:49:46.274 : en:Chapter 9
00:55:07.637 : en:Chapter 10
01:01:11.376 : en:Chapter 11
01:06:21.560 : en:Chapter 12
01:11:51.348 : en:Chapter 13
01:22:34.532 : en:Chapter 14
01:30:46.274 : en:Chapter 15
01:38:12.219 : en:Chapter 16

Скриншоты


_________________
Правообладатели, убейтесь об эту надпись.
[Торрент-статистика]
[Профиль]  [ЛС] 
Показать сообщения:    
Ответить на тему

Текущее время: Сегодня 00:21

Часовой пояс: GMT + 4



Вы не можете начинать темы
Вы не можете отвечать на сообщения
Вы не можете редактировать свои сообщения
Вы не можете удалять свои сообщения
Вы не можете голосовать в опросах
Вы не можете прикреплять файлы к сообщениям
Вы не можете скачивать файлы