Воображариум (Имаджинариум) / Imaginaerum (Стобе Харью / Stobe Harju) [2012 г., мюзикл, фэнтези, драма, BDRip 720p] Sub Rus + Original Eng

Ответить на тему
 
Автор
Сообщение

Trick-Sterr ®

Пол:

Стаж: 3 года 6 месяцев

Сообщений: 15

Репутация: 6 [+] [-]

Откуда: Киев

Пост 09-Май-2013 04:10

[Цитировать] 

Воображариум (Имаджинариум) / Imaginaerum--Год выпуска: 2012
Страна: Финляндия, Канада (Scene Nation, Solar Films)
Жанр: мюзикл, фэнтези, драма
Продолжительность: 01:25:44
Перевод: Субтитры (перевод и синхронизация Midnight)sky)
Субтитры: русские
Оригинальная аудиодорожка: английский
-
Режиссер: Стобе Харью / Stobe Harju
-
В ролях: Марианн Фарли, Куинн Лорд, Фрэнсис З. МакКарти, Илка Вилли, Джоэнна Нойес, Кеянна Филдинг, Стефани Демерс, Рон Лиа, Хелен Робитейлл, группа Nightwish (Туомас Холопайнен, Анетт Ользон, Юкка Невалайнен, Эмппу Вуоринен, Марко Хиетала) и др.
-
Описание: Кто из нас в детстве не мечтал попасть в волшебную страну? В страну, где все возможно. Где исполняются самые несбыточные мечты, встречаются необыкновенные существа и происходит самое настоящее Волшебство. Теперь ваши мечты могут осуществиться! Не важно сколько вам лет. Не важно верите ли вы в говорящих снеговиков и в то, что люди могут летать. Просто приоткройте эту дверь и перед вами окажется Воображариум, где все возможно!
"Воображариум" (англ. "Imaginaerum") - финско-канадский музыкальный фантастический фильм сценариста и режиссёра Стобе Харью по истории и песням Туомаса Холопайнена. Фильм является смежным проектом с одноимённым альбомом "Imaginaerum" группы Nightwish. Премьера фильма состоялась 10 ноября 2012 года в Хартвалл Арене, Хельсинки, и была совмещена с концертом Nightwish. В прокат картина вышла 23 ноября 2012 года в Финляндии. Мировая премьера состоялась 10 ноября 2012 года.
Фильм «Imaginaerum» рассказывает историю пожилого композитора, Тома, страдающего от тяжёлой формы слабоумия. Том фактически вернулся в детство и ничего не помнит о своей взрослой жизни. Его музыка, друзья, всё его прошлое, включая память о дочери — всё исчезло. В своих снах он путешествует в своё далёкое прошлое, где к нему возвращаются его старые мечты, переплетаясь с юношеским миром фантазий и музыки. Во сне старик стремится найти самые важные для него воспоминания.--Семпл | КиноПоиск | IMDb--Тип релиза: BDRip 720p
Контейнер: MKV
Видео: x.264, 1280x544, 23.976, 6533 kbps
Аудио: Английский, DTS, 48 kHz, 768 kbps, 6ch (L, C, R, Ls, Rs +LFE) (Оригинал)
Формат субтитров: softsub (SSA/ASS)
-

MediaInfo

Код:
General
Unique ID : 216748771863389482535455170537580814450 (0xA3104B860B0AF63E9CB288CFB4F66072)
Complete name : D:\Movies\Imaginaerum.2012.720p.BDRip.x264.dts-Midnight)sky.ru_sub.mkv
Format : Matroska
Format version : Version 4 / Version 2
File size : 4.37 GiB
Duration : 1h 25mn
Overall bit rate : 7 297 Kbps
Encoded date : UTC 2013-04-29 08:34:50
Writing application : mkvmerge v6.2.0 ('Promised Land') built on Apr 28 2013 12:22:01
Writing library : libebml v1.3.0 + libmatroska v1.4.0
Video
ID : 1
Format : AVC
Format/Info : Advanced Video Codec
Format profile : High@L3.1
Format settings, CABAC : Yes
Format settings, ReFrames : 5 frames
Codec ID : V_MPEG4/ISO/AVC
Duration : 1h 25mn
Bit rate : 6 533 Kbps
Width : 1 280 pixels
Height : 544 pixels
Display aspect ratio : 2.35:1
Frame rate mode : Constant
Frame rate : 23.976 fps
Color space : YUV
Chroma subsampling : 4:2:0
Bit depth : 8 bits
Scan type : Progressive
Bits/(Pixel*Frame) : 0.391
Stream size : 3.82 GiB (87%)
Title : Imaginaerum by Nightwish
Writing library : x264 core 130 r2273 b3065e6
Encoding settings : cabac=1 / ref=5 / deblock=1:0:0 / analyse=0x3:0x133 / me=umh / subme=7 / psy=1 / psy_rd=1.00:0.00 / mixed_ref=1 / me_range=16 / chroma_me=1 / trellis=1 / 8x8dct=1 / cqm=0 / deadzone=21,11 / fast_pskip=0 / chroma_qp_offset=-2 / threads=6 / lookahead_threads=1 / sliced_threads=0 / nr=0 / decimate=1 / interlaced=0 / bluray_compat=0 / constrained_intra=0 / bframes=3 / b_pyramid=2 / b_adapt=2 / b_bias=0 / direct=3 / weightb=1 / open_gop=0 / weightp=2 / keyint=250 / keyint_min=23 / scenecut=40 / intra_refresh=0 / rc_lookahead=50 / rc=2pass / mbtree=1 / bitrate=6533 / ratetol=1.0 / qcomp=0.60 / qpmin=0 / qpmax=69 / qpstep=4 / cplxblur=20.0 / qblur=0.5 / ip_ratio=1.40 / aq=1:1.00
Language : English
Default : No
Forced : No
Audio
ID : 2
Format : DTS
Format/Info : Digital Theater Systems
Mode : 16
Format settings, Endianness : Big
Codec ID : A_DTS
Duration : 1h 25mn
Bit rate mode : Constant
Bit rate : 768 Kbps
Channel(s) : 6 channels
Channel positions : Front: L C R, Side: L R, LFE
Sampling rate : 48.0 KHz
Bit depth : 24 bits
Compression mode : Lossy
Stream size : 471 MiB (11%)
Language : English
Default : Yes
Forced : No
Text
ID : 3
Format : ASS
Codec ID : S_TEXT/ASS
Codec ID/Info : Advanced Sub Station Alpha
Compression mode : Lossless
Title : Russian subtitles by Midnight)sky
Language : Russian
Default : Yes
Forced : Yes

Скриншоты

[
[Торрент-статистика]
[Профиль]  [ЛС] 

Trick-Sterr ®

Пол:

Стаж: 3 года 6 месяцев

Сообщений: 15

Репутация: 6 [+] [-]

Откуда: Киев

Пост 11-Май-2013 09:06 (спустя 2 дня 4 часа)

[Цитировать] 

--
[Торрент-статистика]
[Профиль]  [ЛС] 
Показать сообщения:    
Ответить на тему

Текущее время: Сегодня 01:52

Часовой пояс: GMT + 4



Вы не можете начинать темы
Вы не можете отвечать на сообщения
Вы не можете редактировать свои сообщения
Вы не можете удалять свои сообщения
Вы не можете голосовать в опросах
Вы не можете прикреплять файлы к сообщениям
Вы не можете скачивать файлы