Апокалипсис / Apocalypto (Мел Гибсон) [2006 г., Драма, боевик, приключения, BDRip 720p]

Ответить на тему
 
Автор
Сообщение

alien.09 ®

Пол:

Стаж: 4 года 4 месяца

Сообщений: 753

Репутация: 559 [+] [-]

Пост 01-Июн-2013 02:39

[Цитировать] 

--Апокалипсис / Apocalypto--Год выпуска: 2006
Страна: США
Жанр: Драма, боевик, приключения
Продолжительность: 02:18:21
Перевод: Профессиональный (многоголосый, закадровый)-Режиссер: Мел Гибсон-В ролях: Руди Янгблад, Жерардо Тарачена, Далиа Эрнандес, Джонатан Брюер, Родольфо Паласьос, Рауль Трухильо, Моррис Бердиеллоухед-Описание: В фильме показана жизнь цивилизации майя до прихода испанских конкистадоров: жестокие войны с соседними племенами, человеческие жертвоприношения, загадочные мистические ритуалы.
В один день рушится мир индейца по имени Лапа Ягуара. Его деревню захватывает соседнее племя, уничтожая хижины, забирая местных жителей в плен. Его ведут в город, чтобы принести в жертву богам. Перед лицом неминуемой смерти Лапа Ягуара должен побороть свои самые сильные страхи и совершить отчаянный рывок, чтобы спасти то, что ему дорого…-- --Тип релиза: BDRip 720p
Контейнер: MKV
Видео кодек: H264 (AVC)
Аудио кодек: AC3 (Dolby Digital)
Видео: AVC at 4888 Кбит/сек, 1280 x 688 (1.860) at 23.976 fps
Аудио: AC-3 at 448 Кбит/сек, 6 каналов, 48,0 КГц
Чаптеры: нет

MI Report

Общее
Уникальный идентификатор : 206615731699256682671405125271862640160 (0x9B70BE1242432910AD414109DC43FE20)
Полное имя : C:\Users\Gary\Внеха\Апокалипсис 1280х.mkv
Формат : Matroska
Версия формата : Version 2
Размер файла : 5,26 Гбайт
Продолжительность : 2 ч. 18 м.
Общий поток : 5445 Кбит/сек
Название фильма : Апокалипсис (2006 BDRip-720p) RG BrodimCom
Дата кодирования : UTC 2013-05-30 21:56:21
Программа кодирования : mkvmerge v5.3.0 ('I could have danced') built on Mar 4 2012 19:18:32
Библиотека кодирования : XviD4PSP 6.0 / 54.29.105
Видео
Идентификатор : 1
Формат : AVC
Формат/Информация : Advanced Video Codec
Профиль формата : High@L4.1
Параметр CABAC формата : Да
Параметр ReFrames формата : 3 кадра
Режим смешивания : Header stripping
Идентификатор кодека : V_MPEG4/ISO/AVC
Продолжительность : 2 ч. 18 м.
Битрейт : 4888 Кбит/сек
Ширина : 1280 пикселей
Высота : 688 пикселей
Соотношение сторон : 1,85:1
Режим частоты кадров : Постоянный
Частота кадров : 23,976 кадра/сек
Цветовое пространство : YUV
Субдискретизация насыщенности : 4:2:0
Битовая глубина : 8 бит
Тип развёртки : Прогрессивная
Бит/(Пиксели*Кадры) : 0.232
Размер потока : 4,72 Гбайт (90%)
Заголовок : Апокалипсис (2006 BDRip-720p) RG BrodimCom
Библиотека кодирования : x264 core 128 r2216M 198a7ea
Настройки программы : cabac=1 / ref=3 / deblock=1:0:0 / analyse=0x3:0x133 / me=hex / subme=7 / psy=1 / psy_rd=1.00:0.20 / mixed_ref=1 / me_range=16 / chroma_me=1 / trellis=1 / 8x8dct=1 / cqm=0 / deadzone=21,11 / fast_pskip=1 / chroma_qp_offset=-3 / threads=8 / lookahead_threads=1 / sliced_threads=0 / nr=0 / decimate=1 / interlaced=0 / bluray_compat=0 / constrained_intra=0 / bframes=3 / b_pyramid=1 / b_adapt=2 / b_bias=0 / direct=3 / weightb=1 / open_gop=0 / weightp=2 / keyint=230 / keyint_min=23 / scenecut=40 / intra_refresh=0 / rc_lookahead=40 / rc=crf / mbtree=1 / crf=20.0 / qcomp=0.60 / qpmin=10 / qpmax=51 / qpstep=4 / ip_ratio=1.40 / aq=1:1.00
Язык : myn
Default : Да
Forced : Нет
Аудио
Идентификатор : 2
Формат : AC-3
Формат/Информация : Audio Coding 3
Расширение режима : CM (complete main)
Параметр Endianness формата : Big
Режим смешивания : Header stripping
Идентификатор кодека : A_AC3
Продолжительность : 2 ч. 18 м.
Вид битрейта : Постоянный
Битрейт : 448 Кбит/сек
Каналы : 6 каналов
Расположение каналов : Front: L C R, Side: L R, LFE
Частота : 48,0 КГц
Битовая глубина : 16 бит
Метод сжатия : С потерями
Задержка видео : 27 мс.
Размер потока : 443 Мбайт (8%)
Заголовок : рус АС-3 5,1
Язык : Russian
Default : Да
Forced : Нет

Скриншоты


_________________
Правообладатели, убейтесь об эту надпись.


Последний раз редактировалось: alien.09 (2013-07-23 12:12), всего редактировалось 1 раз
[Торрент-статистика]
[Профиль]  [ЛС] 

Сфинксик

Пол:

Стаж: 4 года 3 месяца

Сообщений: 1660

Репутация: 1032 [+] [-]

Откуда: г.Раменское

Пост 01-Июн-2013 10:22 (спустя 7 часов)

[Цитировать] 

Спасибо за релиз!!! Но фильм мне, не очень...

_________________
ЕСЛИ НЕТ СИДОВ НА РАЗДАЧЕ СТУЧИТЕ В ЛИЧКУ В ТЕЧЕНИИ СУТОК ВОССТАНОВЛЮ!!!!
[Торрент-статистика]
[Профиль]  [ЛС] 
Показать сообщения:    
Ответить на тему

Текущее время: Сегодня 12:29

Часовой пояс: GMT + 4



Вы не можете начинать темы
Вы не можете отвечать на сообщения
Вы не можете редактировать свои сообщения
Вы не можете удалять свои сообщения
Вы не можете голосовать в опросах
Вы не можете прикреплять файлы к сообщениям
Вы не можете скачивать файлы