Говорящие с ветром / Windtalkers (Джон Ву) [2002 г., Боевик, драма, военный, BDRip-AVC 720p]

Ответить на тему
 
Автор
Сообщение

alien.09 ®

Пол:

Стаж: 4 года 7 месяцев

Сообщений: 753

Репутация: 562 [+] [-]

Пост 16-Май-2013 01:24

[Цитировать] 

--Говорящие с ветром / Windtalkers--Год выпуска: 2002
Страна: США
Жанр: Боевик, драма, военный
Продолжительность: 02:14:20
Перевод: Профессиональный (полное дублирование)-Режиссер: Джон Ву-В ролях: Николас Кэйдж, Адам Бич, Питер Стормар, Ной Эммерих, Марк Руффало, Брайан Ван Холт, Мартин Хендерсон, Роджер Уилли, Фрэнсис О`Коннор, Кристиан Слэйтер, Джейсон Айзекс, Билли Мортс, Камерон Тор, Кевин Куни, Холмс Осборн, Кейт Кэмпбелл, Клэйтон Дж. Барбер, Скотт Эткинсон, Джереми Дэвидсон, Брайан Мэйнард, Альберт Смит-Описание: Вторая мировая война. Америка ведет ожесточенные бои с японцами в Тихом океане. В течении этой войны японцы искусно расшифровывают секретные американские радиограммы. Это обстоятельство заставило американское правительство завербовать несколько сотен индейцев Навахо, чтобы использовать их родной язык в качестве кода для секретных сообщений.
Морскому пехотинцу Джо Эндерсу дается задание: охранять Бена Яхзи, который знает секретный код, охранять любой ценой, и даже убить своего подопечного, если он попадет в плен к врагам. Джо предстоит решить, чьей жизнью пожертвовать — своей или Бена — чтобы защитить код…--
--Тип релиза: BDRip 720p
Контейнер: MKV
Видео кодек: H264 (AVC)
Аудио кодек: AC3 (Dolby Digital)
Видео: AVC at 6947 Кбит/сек, 1280 x 528 (2.424) at 23.976 fps
Аудио: AC-3 at 384 Кбит/сек, 6 каналов, 48,0 КГц

MI

Общее
Уникальный идентификатор : 177251609352480881523645728052367550928 (0x85596B1017431ACC999225A54CCB69D0)
Полное имя : C:\Users\Gary\Внеха\Говорящие с ветром 720p.mkv
Формат : Matroska
Версия формата : Version 2
Размер файла : 6,88 Гбайт
Продолжительность : 2 ч. 14 м.
Общий поток : 7333 Кбит/сек
Название фильма : Windtalkers (2002) - Release fro HDCLUB
Дата кодирования : UTC 2013-05-15 15:37:01
Программа кодирования : mkvmerge v5.3.0 ('I could have danced') built on Mar 4 2012 19:18:32
Библиотека кодирования : libebml v1.2.3 + libmatroska v1.3.0
Видео
Идентификатор : 1
Формат : AVC
Формат/Информация : Advanced Video Codec
Профиль формата : High@L4.1
Параметр CABAC формата : Да
Параметр ReFrames формата : 9 кадров
Режим смешивания : Header stripping
Идентификатор кодека : V_MPEG4/ISO/AVC
Продолжительность : 2 ч. 14 м.
Битрейт : 6947 Кбит/сек
Ширина : 1280 пикселей
Высота : 528 пикселей
Соотношение сторон : 2,40:1
Режим частоты кадров : Постоянный
Частота кадров : 23,976 кадра/сек
Цветовое пространство : YUV
Субдискретизация насыщенности : 4:2:0
Битовая глубина : 8 бит
Тип развёртки : Прогрессивная
Бит/(Пиксели*Кадры) : 0.429
Размер потока : 6,38 Гбайт (93%)
Заголовок : Release fro HDCLUB
Библиотека кодирования : x264 core 84 r1400M 20fa784
Настройки программы : cabac=1 / ref=9 / deblock=1:-3:-3 / analyse=0x3:0x113 / me=umh / subme=9 / psy=1 / psy_rd=1.0:0.0 / mixed_ref=1 / me_range=32 / chroma_me=1 / trellis=2 / 8x8dct=1 / cqm=0 / deadzone=21,11 / fast_pskip=0 / chroma_qp_offset=-2 / threads=12 / sliced_threads=0 / nr=0 / decimate=0 / mbaff=0 / constrained_intra=0 / bframes=8 / b_pyramid=2 / b_adapt=2 / b_bias=0 / direct=3 / wpredb=1 / wpredp=2 / keyint=240 / keyint_min=24 / scenecut=40 / intra_refresh=0 / rc_lookahead=80 / rc=2pass / mbtree=1 / bitrate=6947 / ratetol=1.0 / qcomp=0.80 / qpmin=10 / qpmax=51 / qpstep=4 / cplxblur=20.0 / qblur=0.5 / vbv_maxrate=50000 / vbv_bufsize=62500 / ip_ratio=1.40 / aq=1:0.80 / pulldown=0 / nal_hrd=0
Язык : English
Default : Нет
Forced : Нет
Аудио
Идентификатор : 2
Формат : AC-3
Формат/Информация : Audio Coding 3
Расширение режима : CM (complete main)
Параметр Endianness формата : Big
Режим смешивания : Header stripping
Идентификатор кодека : A_AC3
Продолжительность : 2 ч. 14 м.
Вид битрейта : Постоянный
Битрейт : 384 Кбит/сек
Каналы : 6 каналов
Расположение каналов : Front: L C R, Side: L R, LFE
Частота : 48,0 КГц
Битовая глубина : 16 бит
Метод сжатия : С потерями
Размер потока : 369 Мбайт (5%)
Заголовок : AC3 5.1 384kbps Дубляж - R5 #1
Язык : Russian
Default : Да
Forced : Нет
Меню #1
00:00:00.000 : en:Main Title/Credits
00:04:33.482 : en:"Solomon Islands - 1943"'
00:08:51.656 : en:U.S. Naval Hospital
00:13:01.322 : en:"Protect the Code"
00:18:54.008 : en:Chitchat & Chow
00:24:18.832 : en:Gambling Away Time
00:27:36.280 : en:Marine Pep Talk
00:31:50.200 : en:"To War"
00:34:01.790 : en:Saipan - June 16, 1944
00:36:47.539 : en:Battle Crazy
00:42:50.943 : en:Decoding Coordinates
00:49:23.961 : en:"Windtalkers"
00:54:36.690 : en:Savage Prejudice
00:58:10.612 : en:Ghostly Duo
01:01:03.076 : en:"Dear Joe"
01:03:57.083 : en:Under Friendly Fire
01:07:45.561 : en:Disguised As the Enemy
01:13:38.623 : en:Medal of Honor
01:16:14.278 : en:Out of Balance
01:23:47.898 : en:Pain Killers
01:28:35.560 : en:"A Soldier of Christ"
01:32:28.585 : en:"I Want Out"
01:33:53.628 : en:Sudden Ambush
01:41:05.476 : en:Senseless Death
01:44:54.914 : en:Mourning a Loss
01:47:47.920 : en:Caught in a Minefield
01:52:52.057 : en:Some Don't Make It
01:57:19.366 : en:Calling for Flyboys
02:02:27.632 : en:"No One Else Is Dying"
02:05:11.462 : en:A Hero in Battle
02:07:35.648 : en:Remembering a Warrior
02:09:43.609 : en:End Credits
Меню #2
00:00:00.000 : en:Main Title/Credits
00:04:33.482 : en:"Solomon Islands - 1943"'
00:08:51.656 : en:U.S. Naval Hospital
00:13:01.322 : en:"Protect the Code"
00:18:54.008 : en:Chitchat & Chow
00:24:18.832 : en:Gambling Away Time
00:27:36.280 : en:Marine Pep Talk
00:31:50.200 : en:"To War"
00:34:01.790 : en:Saipan - June 16, 1944
00:36:47.539 : en:Battle Crazy
00:42:50.943 : en:Decoding Coordinates
00:49:23.961 : en:"Windtalkers"
00:54:36.690 : en:Savage Prejudice
00:58:10.612 : en:Ghostly Duo
01:01:03.076 : en:"Dear Joe"
01:03:57.083 : en:Under Friendly Fire
01:07:45.561 : en:Disguised As the Enemy
01:13:38.623 : en:Medal of Honor
01:16:14.278 : en:Out of Balance
01:23:47.898 : en:Pain Killers
01:28:35.560 : en:"A Soldier of Christ"
01:32:28.585 : en:"I Want Out"
01:33:53.628 : en:Sudden Ambush
01:41:05.476 : en:Senseless Death
01:44:54.914 : en:Mourning a Loss
01:47:47.920 : en:Caught in a Minefield
01:52:52.057 : en:Some Don't Make It
01:57:19.366 : en:Calling for Flyboys
02:02:27.632 : en:"No One Else Is Dying"
02:05:11.462 : en:A Hero in Battle
02:07:35.648 : en:Remembering a Warrior
02:09:43.609 : en:End Credits

Скриншоты


_________________
Правообладатели, убейтесь об эту надпись.
[Торрент-статистика]
[Профиль]  [ЛС] 
Показать сообщения:    
Ответить на тему

Текущее время: Сегодня 04:11

Часовой пояс: GMT + 4



Вы не можете начинать темы
Вы не можете отвечать на сообщения
Вы не можете редактировать свои сообщения
Вы не можете удалять свои сообщения
Вы не можете голосовать в опросах
Вы не можете прикреплять файлы к сообщениям
Вы не можете скачивать файлы