Хеллбой: Дилогия / Hellboy: Dilogy (Гильермо Дель Торо) [2004 г., Боевик, фэнтези, приключения, BDRip-AVC 720p]

Ответить на тему
 
Автор
Сообщение

alien.09 ®

Пол:

Стаж: 4 года 4 месяца

Сообщений: 753

Репутация: 559 [+] [-]

Пост 14-Май-2013 20:34

[Цитировать] 

--Хеллбой: Дилогия / Hellboy: Dilogy--Год выпуска: 2004
Страна: США,Германия
Жанр: Боевик, фэнтези, приключения
Продолжительность: 02:01:58 | 01:59:40
Перевод: Профессиональный (полное дублирование)--Режиссер: Гильермо Дель Торо--Тип релиза: BDRip 720p
Контейнер: MKV
Видео кодек: H264 (AVC)
Аудио кодек: AC3 (Dolby Digital)--

Хеллбой: Герой из пекла

--Хеллбой: Герой из пекла / Hellboy (2004) BDRip 720p--Год выпуска: 2004
Страна: США
Жанр: Боевик, комедия, приключения
Продолжительность: 02:01:58
Перевод: Профессиональный (полное дублирование)-Режиссер: Гильермо Дель Торо-В ролях: Рон Перлман, Джон Харт, Сэльма Блэр, Руперт Эванс, Карел Роден, Джеффри Тэмбор, Даг Джонс, Брайан Стил, Ладислав Беран, Бидди Ходсон, Кори Джонсон, Кевин Трэйнор, Брайан Каспе, Джеймс Бэбсон, Стивен Фишер, Гарт Купер, Энгус МакИннес-Описание: Вторая мировая война. Нацисты терпят одно сокрушительное поражение за другим. В результате исследования оккультных ритуалов в супер-секретной лаборатории ученым, работающим на фашистский режим, удается поднять из небытия Демона Ада, который должен помочь переломить ход войны.
Но в научную лабораторию тайно проникает отряд союзников и поворачивает это мистическое и грозное оружие против нацистов. Однако никто из участников эксперимента и не предполагает, что врата потустороннего мира после открытия окажутся неподвластны людям, и им придется столкнуться с существами еще более опасными и непредсказуемыми, чем Демон Ада…-- --Тип релиза: BDRip 720p
Контейнер: MKV
Видео кодек: H264/AVC
Аудио кодек: AC-3
Видео: AVC at 4228 Кбит/сек, 1280 x 694 (1.844) at 23.976 fps
Аудио: AC-3 at 448 Кбит/сек, 6 каналов, 44,1 КГц
Чаптеры: Есть

MI

Общее
Уникальный идентификатор : 190378836393897293909432127643318355253 (0x8F39A15366DC9A1498E62EECC9D20535)
Полное имя : C:\Users\Gary\Внеха\Хеллбой Дилогия\Хеллбой Герой из пекла.mkv
Формат : Matroska
Версия формата : Version 2
Размер файла : 3,98 Гбайт
Продолжительность : 2 ч. 1 м.
Общий поток : 4676 Кбит/сек
Название фильма : Хеллбой: Герой из пекла.(2004).BDRip.720p.(DVD5).[NoLimits-Team]
Дата кодирования : UTC 2013-05-13 02:24:09
Программа кодирования : mkvmerge v5.3.0 ('I could have danced') built on Mar 4 2012 19:18:32
Библиотека кодирования : libebml v1.2.3 + libmatroska v1.3.0
Видео
Идентификатор : 1
Формат : AVC
Формат/Информация : Advanced Video Codec
Профиль формата : High@L4.1
Параметр CABAC формата : Да
Параметр ReFrames формата : 9 кадров
Режим смешивания : Header stripping
Идентификатор кодека : V_MPEG4/ISO/AVC
Продолжительность : 2 ч. 1 м.
Битрейт : 4228 Кбит/сек
Ширина : 1280 пикселей
Высота : 694 пикселя
Соотношение сторон : 1,85:1
Режим частоты кадров : Постоянный
Частота кадров : 23,976 кадра/сек
Цветовое пространство : YUV
Субдискретизация насыщенности : 4:2:0
Битовая глубина : 8 бит
Тип развёртки : Прогрессивная
Бит/(Пиксели*Кадры) : 0.199
Размер потока : 3,52 Гбайт (88%)
Заголовок : Хеллбой: Герой из пекла.(2004).BDRip.720p.(DVD5).[NoLimits-Team]
Библиотека кодирования : x264 core 132 r2310 76a5c3a
Настройки программы : cabac=1 / ref=9 / deblock=1:0:0 / analyse=0x3:0x133 / me=umh / subme=11 / psy=1 / psy_rd=1.00:0.00 / mixed_ref=1 / me_range=64 / chroma_me=1 / trellis=2 / 8x8dct=1 / cqm=0 / deadzone=21,11 / fast_pskip=0 / chroma_qp_offset=-2 / threads=9 / lookahead_threads=2 / sliced_threads=0 / nr=0 / decimate=1 / interlaced=0 / bluray_compat=0 / constrained_intra=0 / bframes=14 / b_pyramid=2 / b_adapt=2 / b_bias=0 / direct=3 / weightb=1 / open_gop=0 / weightp=2 / keyint=240 / keyint_min=23 / scenecut=40 / intra_refresh=0 / rc_lookahead=60 / rc=2pass / mbtree=1 / bitrate=4228 / ratetol=1.0 / qcomp=0.60 / qpmin=0 / qpmax=69 / qpstep=4 / cplxblur=20.0 / qblur=0.5 / ip_ratio=1.40 / aq=1:1.00
Язык : English
Default : Да
Forced : Нет
Аудио
Идентификатор : 2
Формат : AC-3
Формат/Информация : Audio Coding 3
Расширение режима : CM (complete main)
Параметр Endianness формата : Big
Режим смешивания : Header stripping
Идентификатор кодека : A_AC3
Продолжительность : 2 ч. 1 м.
Вид битрейта : Постоянный
Битрейт : 448 Кбит/сек
Каналы : 6 каналов
Расположение каналов : Front: L C R, Side: L R, LFE
Частота : 44,1 КГц
Битовая глубина : 16 бит
Метод сжатия : С потерями
Размер потока : 391 Мбайт (10%)
Заголовок : Дублированный
Язык : Russian
Default : Да
Forced : Нет
Меню
00:00:00.000 : :Chapter 01
00:06:42.902 : :Chapter 02
00:14:38.252 : :Chapter 03
00:22:50.035 : :Chapter 04
00:31:06.906 : :Chapter 05
00:40:09.156 : :Chapter 06
00:47:42.067 : :Chapter 07
00:53:32.959 : :Chapter 08
00:58:40.433 : :Chapter 09
01:03:57.667 : :Chapter 10
01:10:57.503 : :Chapter 11
01:18:40.465 : :Chapter 12
01:28:18.042 : :Chapter 13
01:34:50.184 : :Chapter 14
01:39:44.478 : :Chapter 15
01:48:09.524 : :Chapter 16

Скриншоты

Хеллбой II: Золотая армия

--Хеллбой II: Золотая армия / Hellboy II: The Golden Army (2008) BDRip 720p--Год выпуска: 2008
Страна: США, Германия
Жанр: Боевик, комедия, приключения
Продолжительность: 01:59:40
Перевод: Профессиональный (полное дублирование)-Режиссер: Гильермо Дель Торо-В ролях: Рон Перлман, Сэльма Блэр, Даг Джонс, Джон Александр, Джеймс Додд, Сет МакФарлейн, Люк Госс, Анна Уолтон, Джефри Тэмбор, Джон Хёрт-Описание: После того как древнее перемирие между человечеством и тайным миром было нарушено, на Земле вот-вот разверзнется ад. Безжалостный лидер, вхожий в оба мира, бросает вызов своей крови и пробуждает на свет неодолимую армию чудовищ.
Настало время самому Хэллбою сразиться с беспощадным диктатором и его войнами. Вместе со своей пополняющей ряды командой «Бюро Паранормальных Исследований и Развития» он будет бороздить границы двух миров — нашего и скрытого, где самые невероятные существа обретают плоть. Хэллбою, порожденному обоими мирами, но не принадлежащему ни одному из них, предстоит выбирать между жизнью, которую он знает, и неизвестностью новой судьбы...-- --Тип релиза: BDRip 720p
Контейнер: MKV
Видео кодек: H264/AVC
Аудио кодек: AC-3
Видео: AVC at 4327 Кбит/сек, 1280 x 694 (1.844) at 23.976 fps
Аудио: AC-3 at 448 Кбит/сек, 6 каналов, 48,0 КГц
Чаптеры: Есть

MI

Общее
Уникальный идентификатор : 186848840445965578943178142711639623044 (0x8C91C7169E84BD84A7A96D61A236C584)
Полное имя : C:\Users\Gary\Внеха\Хеллбой Дилогия\Хеллбой 2 Золотая армия.mkv
Формат : Matroska
Версия формата : Version 2
Размер файла : 3,99 Гбайт
Продолжительность : 1 ч. 59 м.
Общий поток : 4770 Кбит/сек
Название фильма : Хеллбой II: Золотая армия.(2008).BDRip.720p.(DVD5).[NoLimits-Team]
Дата кодирования : UTC 2013-05-13 02:29:29
Программа кодирования : mkvmerge v5.3.0 ('I could have danced') built on Mar 4 2012 19:18:32
Библиотека кодирования : libebml v1.2.3 + libmatroska v1.3.0
Видео
Идентификатор : 1
Формат : AVC
Формат/Информация : Advanced Video Codec
Профиль формата : High@L4.1
Параметр CABAC формата : Да
Параметр ReFrames формата : 9 кадров
Режим смешивания : Header stripping
Идентификатор кодека : V_MPEG4/ISO/AVC
Продолжительность : 1 ч. 59 м.
Битрейт : 4327 Кбит/сек
Ширина : 1280 пикселей
Высота : 694 пикселя
Соотношение сторон : 1,85:1
Режим частоты кадров : Постоянный
Частота кадров : 23,976 кадра/сек
Цветовое пространство : YUV
Субдискретизация насыщенности : 4:2:0
Битовая глубина : 8 бит
Тип развёртки : Прогрессивная
Бит/(Пиксели*Кадры) : 0.203
Размер потока : 3,53 Гбайт (89%)
Заголовок : Хеллбой II: Золотая армия.(2008).BDRip.720p.(DVD5).[NoLimits-Team]
Библиотека кодирования : x264 core 132 r2310 76a5c3a
Настройки программы : cabac=1 / ref=9 / deblock=1:0:0 / analyse=0x3:0x133 / me=umh / subme=11 / psy=1 / psy_rd=1.00:0.00 / mixed_ref=1 / me_range=64 / chroma_me=1 / trellis=2 / 8x8dct=1 / cqm=0 / deadzone=21,11 / fast_pskip=0 / chroma_qp_offset=-2 / threads=9 / lookahead_threads=2 / sliced_threads=0 / nr=0 / decimate=1 / interlaced=0 / bluray_compat=0 / constrained_intra=0 / bframes=14 / b_pyramid=2 / b_adapt=2 / b_bias=0 / direct=3 / weightb=1 / open_gop=0 / weightp=2 / keyint=240 / keyint_min=23 / scenecut=40 / intra_refresh=0 / rc_lookahead=60 / rc=2pass / mbtree=1 / bitrate=4327 / ratetol=1.0 / qcomp=0.60 / qpmin=0 / qpmax=69 / qpstep=4 / cplxblur=20.0 / qblur=0.5 / ip_ratio=1.40 / aq=1:1.00
Язык : English
Default : Да
Forced : Нет
Аудио
Идентификатор : 2
Формат : AC-3
Формат/Информация : Audio Coding 3
Расширение режима : CM (complete main)
Параметр Endianness формата : Big
Режим смешивания : Header stripping
Идентификатор кодека : A_AC3
Продолжительность : 1 ч. 59 м.
Вид битрейта : Постоянный
Битрейт : 448 Кбит/сек
Каналы : 6 каналов
Расположение каналов : Front: L C R, Side: L R, LFE
Частота : 48,0 КГц
Битовая глубина : 16 бит
Метод сжатия : С потерями
Размер потока : 384 Мбайт (9%)
Заголовок : Дублированный
Язык : Russian
Default : Да
Forced : Нет
Меню
00:00:00.000 : :Chapter 01
00:07:00.044 : :Chapter 02
00:11:48.874 : :Chapter 03
00:17:46.440 : :Chapter 04
00:26:36.970 : :Chapter 05
00:29:57.921 : :Chapter 06
00:34:45.875 : :Chapter 07
00:38:34.979 : :Chapter 08
00:44:28.374 : :Chapter 09
00:48:22.399 : :Chapter 10
00:55:07.262 : :Chapter 11
00:59:15.760 : :Chapter 12
01:05:38.434 : :Chapter 13
01:12:58.123 : :Chapter 14
01:16:10.065 : :Chapter 15
01:21:59.915 : :Chapter 16
01:26:19.507 : :Chapter 17
01:35:34.395 : :Chapter 18
01:42:08.789 : :Chapter 19
01:51:53.915 : :Chapter 20
01:59:40.631 : :Chapter 21

Скриншоты


_________________
Правообладатели, убейтесь об эту надпись.
[Торрент-статистика]
[Профиль]  [ЛС] 
Показать сообщения:    
Ответить на тему

Текущее время: Сегодня 09:53

Часовой пояс: GMT + 4



Вы не можете начинать темы
Вы не можете отвечать на сообщения
Вы не можете редактировать свои сообщения
Вы не можете удалять свои сообщения
Вы не можете голосовать в опросах
Вы не можете прикреплять файлы к сообщениям
Вы не можете скачивать файлы