Побег из Шоушенка / The Shawshank Redemption (Фрэнк Дарабонт) [1994 г., драма, криминал, BDRip 720p]

Ответить на тему
 
Автор
Сообщение

alien.09 ®

Пол:

Стаж: 4 года 7 месяцев

Сообщений: 753

Репутация: 562 [+] [-]

Пост 13-Май-2013 21:02

[Цитировать] 

--Побег из Шоушенка / The Shawshank Redemption--Год выпуска: 1994
Страна: США
Жанр: драма, криминал
Продолжительность: 02:22:33
Перевод: Профессиональный (многоголосый, закадровый)-Режиссер: Фрэнк Дарабонт-В ролях: Тим Роббинс, Морган Фриман, Боб Гантон, Уильям Сэдлер, Клэнси Браун, Джил Беллоуз, Марк Ролстон, Джеймс Витмор, Джеффри ДеМун, Ларри Бранденбург-Описание: Шоушенк — название тюрьмы. И если тебе нет еще 30-ти, а ты получаешь пожизненное, то приготовься к худшему: для тебя выхода из Шоушенка не будет!
Актриса Рита Хэйворт — любимица всей Америки. Энди Дюфрейну она тоже очень нравилась. Рита никогда не слышала о существовании Энди, однако жизнь Дюфрейну, бывшему вице-президенту крупного банка, осужденному за убийство жены и ее любовника, Рита Хэйворт все-таки спасла.--
--Тип релиза: BDRip 720p
Контейнер: MKV
Видео кодек: H264 (AVC)
Аудио кодек: AC3 (Dolby Digital)
Видео: AVC at 6019 Кбит/сек, 1280 x 720 (1.778) at 23.976 fps
Аудио: AC-3 at 384 Кбит/сек, 6 каналов, 48,0 КГц

MI

Общее
Уникальный идентификатор : 178429150092470357184240711048220874354 (0x863C344DC195BEA18AD1B5C885B79672)
Полное имя : C:\Users\Gary\Внеха\Побег из Шоушенка 1280х.mkv
Формат : Matroska
Версия формата : Version 2
Размер файла : 6,38 Гбайт
Продолжительность : 2 ч. 22 м.
Общий поток : 6404 Кбит/сек
Дата кодирования : UTC 2013-05-12 21:40:41
Программа кодирования : mkvmerge v5.3.0 ('I could have danced') built on Mar 4 2012 19:18:32
Библиотека кодирования : libebml v1.2.3 + libmatroska v1.3.0
Видео
Идентификатор : 1
Формат : AVC
Формат/Информация : Advanced Video Codec
Профиль формата : High@L4.1
Параметр CABAC формата : Да
Параметр ReFrames формата : 9 кадров
Режим смешивания : Header stripping
Идентификатор кодека : V_MPEG4/ISO/AVC
Продолжительность : 2 ч. 22 м.
Битрейт : 6019 Кбит/сек
Ширина : 1280 пикселей
Высота : 720 пикселей
Соотношение сторон : 16:9
Режим частоты кадров : Постоянный
Частота кадров : 23,976 кадра/сек
Цветовое пространство : YUV
Субдискретизация насыщенности : 4:2:0
Битовая глубина : 8 бит
Тип развёртки : Прогрессивная
Бит/(Пиксели*Кадры) : 0.272
Размер потока : 5,87 Гбайт (92%)
Библиотека кодирования : x264 core 65 r1026M 745a48b
Настройки программы : cabac=1 / ref=9 / deblock=1:-3:-3 / analyse=0x3:0x113 / me=umh / subme=9 / psy_rd=1.0:0.0 / mixed_ref=1 / me_range=32 / chroma_me=1 / trellis=0 / 8x8dct=1 / cqm=2 / deadzone=6,4 / chroma_qp_offset=-2 / threads=6 / nr=0 / decimate=1 / mbaff=0 / bframes=3 / b_pyramid=1 / b_adapt=2 / b_bias=0 / direct=3 / wpredb=1 / keyint=240 / keyint_min=24 / scenecut=40(pre) / rc=2pass / bitrate=6019 / ratetol=1.0 / qcomp=0.60 / qpmin=10 / qpmax=51 / qpstep=4 / cplxblur=20.0 / qblur=0.5 / ip_ratio=1.40 / pb_ratio=1.30 / aq=1:1.00
Язык : English
Default : Да
Forced : Нет
Аудио
Идентификатор : 2
Формат : AC-3
Формат/Информация : Audio Coding 3
Расширение режима : CM (complete main)
Параметр Endianness формата : Big
Режим смешивания : Header stripping
Идентификатор кодека : A_AC3
Продолжительность : 2 ч. 22 м.
Вид битрейта : Постоянный
Битрейт : 384 Кбит/сек
Каналы : 6 каналов
Расположение каналов : Front: L C R, Side: L R, LFE
Частота : 48,0 КГц
Битовая глубина : 16 бит
Метод сжатия : С потерями
Размер потока : 392 Мбайт (6%)
Заголовок : Kinomania AC3 5.1 384 kbps
Язык : Russian
Default : Да
Forced : Нет

Скриншоты


_________________
Правообладатели, убейтесь об эту надпись.
[Торрент-статистика]
[Профиль]  [ЛС] 
Показать сообщения:    
Ответить на тему

Текущее время: Сегодня 13:30

Часовой пояс: GMT + 4



Вы не можете начинать темы
Вы не можете отвечать на сообщения
Вы не можете редактировать свои сообщения
Вы не можете удалять свои сообщения
Вы не можете голосовать в опросах
Вы не можете прикреплять файлы к сообщениям
Вы не можете скачивать файлы