Готика / Gothika (Матьё Кассовиц) [2003 г., ужасы, триллер, детектив, BDRip 720p ]

Ответить на тему
 
Автор
Сообщение

alien.09 ®

Пол:

Стаж: 4 года 7 месяцев

Сообщений: 753

Репутация: 562 [+] [-]

Пост 06-Май-2013 23:33

[Цитировать] 

--Готика / Gothika--Год выпуска: 2003
Страна: США
Жанр: ужасы, триллер, детектив
Продолжительность: 01:38:07
Перевод: Профессиональный (полное дублирование)-Режиссер: Матьё Кассовиц-В ролях: Холли Берри, Роберт Дауни мл., Чарльз С. Даттон, Джон Кэрролл Линч, Бернард Хилл, Пенелопа Крус, Дориан Хэрвуд, Бронуэн Мэнтел, Кэтлин Мэкки, Мэттью Дж. Тейлор-Описание: Фильм повествует о женщине-психиатре, которая однажды оказывается пациенткой больницы для невменяемых преступников, где она прежде работала.
Вдобавок ко всему, ее обвиняют в совершении жестокого убийства, о котором она ничего не помнит. Пытаясь разобраться в происходящем, она сталкивается с необъяснимыми мистическими происшествиями…--
-- Тип релиза: BDRip 720p
Контейнер: MKV
Видео кодек: H264 (AVC)
Аудио кодек: AC3 (Dolby Digital)
Видео: AVC at 6494 Кбит/сек, 1280 x 692 (1.850) at 23.976 fps
Аудио: AC-3 at 640 Кбит/сек, 6 каналов, 48,0 КГц

MI

Общее
Уникальный идентификатор : 200189186401129326250733796709684204243 (0x969B08ECCC3264D49A0C27DD3A7BD2D3)
Полное имя : C:\Users\Gary\Внеха\Готика.mkv
Формат : Matroska
Версия формата : Version 2
Размер файла : 4,99 Гбайт
Продолжительность : 1 ч. 38 м.
Общий поток : 7279 Кбит/сек
Название фильма : Gothika (2003) - Release for HDCLUB
Дата кодирования : UTC 2013-05-06 08:27:32
Программа кодирования : mkvmerge v5.3.0 ('I could have danced') built on Mar 4 2012 19:18:32
Библиотека кодирования : libebml v1.2.3 + libmatroska v1.3.0
Видео
Идентификатор : 1
Формат : AVC
Формат/Информация : Advanced Video Codec
Профиль формата : High@L4.1
Параметр CABAC формата : Да
Параметр ReFrames формата : 9 кадров
Режим смешивания : Header stripping
Идентификатор кодека : V_MPEG4/ISO/AVC
Продолжительность : 1 ч. 38 м.
Битрейт : 6494 Кбит/сек
Ширина : 1280 пикселей
Высота : 692 пикселя
Соотношение сторон : 1,85:1
Режим частоты кадров : Постоянный
Частота кадров : 23,976 кадра/сек
Цветовое пространство : YUV
Субдискретизация насыщенности : 4:2:0
Битовая глубина : 8 бит
Тип развёртки : Прогрессивная
Бит/(Пиксели*Кадры) : 0.306
Размер потока : 4,45 Гбайт (89%)
Заголовок : Release for HDCLUB
Библиотека кодирования : x264 core 125 r2200 999b753
Настройки программы : cabac=1 / ref=9 / deblock=1:-1:-1 / analyse=0x3:0x133 / me=tesa / subme=11 / psy=1 / psy_rd=1.00:0.00 / mixed_ref=1 / me_range=32 / chroma_me=1 / trellis=2 / 8x8dct=1 / cqm=0 / deadzone=21,11 / fast_pskip=1 / chroma_qp_offset=-2 / threads=12 / lookahead_threads=2 / sliced_threads=0 / nr=0 / decimate=1 / interlaced=0 / bluray_compat=0 / constrained_intra=0 / bframes=10 / b_pyramid=2 / b_adapt=2 / b_bias=0 / direct=3 / weightb=1 / open_gop=0 / weightp=2 / keyint=240 / keyint_min=24 / scenecut=40 / intra_refresh=0 / rc=crf / mbtree=0 / crf=17.0 / qcomp=0.60 / qpmin=0 / qpmax=69 / qpstep=4 / ip_ratio=1.40 / pb_ratio=1.30 / aq=1:0.80
Язык : English
Default : Да
Forced : Нет
Аудио
Идентификатор : 2
Формат : AC-3
Формат/Информация : Audio Coding 3
Расширение режима : CM (complete main)
Параметр Endianness формата : Big
Режим смешивания : Header stripping
Идентификатор кодека : A_AC3
Продолжительность : 1 ч. 38 м.
Вид битрейта : Постоянный
Битрейт : 640 Кбит/сек
Каналы : 6 каналов
Расположение каналов : Front: L C R, Side: L R, LFE
Частота : 48,0 КГц
Битовая глубина : 16 бит
Метод сжатия : С потерями
Размер потока : 449 Мбайт (9%)
Заголовок : (AC3 5.1 @ 640 kbps - Дубляж)
Язык : Russian
Default : Да
Forced : Нет

Скриншоты


_________________
Правообладатели, убейтесь об эту надпись.
[Торрент-статистика]
[Профиль]  [ЛС] 
Показать сообщения:    
Ответить на тему

Текущее время: Сегодня 03:02

Часовой пояс: GMT + 4



Вы не можете начинать темы
Вы не можете отвечать на сообщения
Вы не можете редактировать свои сообщения
Вы не можете удалять свои сообщения
Вы не можете голосовать в опросах
Вы не можете прикреплять файлы к сообщениям
Вы не можете скачивать файлы