Малена / Malena (Джузеппе Торнаторе) [2000 г., драма, мелодрама, военный, BDRip 1080p ]

Ответить на тему
 
Автор
Сообщение

alien.09 ®

Пол:

Стаж: 4 года 4 месяца

Сообщений: 753

Репутация: 559 [+] [-]

Пост 06-Май-2013 20:12

[Цитировать] 

--Малена / Malena--Год выпуска: 2000
Страна: США, Италия
Жанр: драма, мелодрама, военный
Продолжительность: 01:32:02
Перевод: Профессиональный (полное дублирование)-Режиссер: Джузеппе Торнаторе-В ролях: Моника Беллуччи, Джузеппе Сульфаро, Лючано Федерико, Матильде Пьяна, Пьетро Нотарианни, Гаэтано Ароника, Джилберто Идонеа, Анджело Пеллегрино, Габриэлла Ди Лузио, Пиппо Проввиденти-Описание: Малена — красавица-вдова, наваждение мужчин и предмет зависти женщин. Жены распускают о ней грязные сплетни. Мужья преследуют ее по пятам и грезят о ней.
«Мне было 13, когда я увидел ее впервые. Прошло время, я любил многих женщин, и когда мы были близки, они спрашивали: буду ли я помнить их? И я говорил: да, я буду помнить вас. Но единственная, кого я никогда не забуду — та, которая никогда не спрашивала. Малена».--
--Тип релиза: BDRip 1080p
Контейнер: MKV
Видео кодек: H264 (AVC)
Аудио кодек: AC3 (Dolby Digital)
Видео: AVC at 8675 Кбит/сек, 1920 x 816 (2.353) at 23.976 fps
Аудио: AC-3 at 448 Кбит/сек, 6 каналов, 48,0 КГц- -

MI

Общее
Уникальный идентификатор : 220828442362276880765596165034233599088 (0xA62202CF0C1727EDAA1982D544D49470)
Полное имя : C:\Users\Gary\Внеха\Малена.mkv
Формат : Matroska
Версия формата : Version 2
Размер файла : 6,18 Гбайт
Продолжительность : 1 ч. 37 м.
Общий поток : 9100 Кбит/сек
Дата кодирования : UTC 2013-05-06 11:09:48
Программа кодирования : mkvmerge v5.3.0 ('I could have danced') built on Mar 4 2012 19:18:32
Библиотека кодирования : libebml v1.2.3 + libmatroska v1.3.0
Видео
Идентификатор : 1
Формат : AVC
Формат/Информация : Advanced Video Codec
Профиль формата : High@L4.1
Параметр CABAC формата : Да
Параметр ReFrames формата : 5 кадров
Режим смешивания : Header stripping
Идентификатор кодека : V_MPEG4/ISO/AVC
Продолжительность : 1 ч. 37 м.
Битрейт : 8675 Кбит/сек
Ширина : 1920 пикселей
Высота : 816 пикселей
Соотношение сторон : 2,35:1
Режим частоты кадров : Постоянный
Частота кадров : 23,976 кадра/сек
Цветовое пространство : YUV
Субдискретизация насыщенности : 4:2:0
Битовая глубина : 8 бит
Тип развёртки : Прогрессивная
Бит/(Пиксели*Кадры) : 0.231
Размер потока : 5,75 Гбайт (93%)
Заголовок : Малена / Malena
Библиотека кодирования : x264 core 120 r2164 da19765
Настройки программы : cabac=1 / ref=5 / deblock=1:-3:-3 / analyse=0x3:0x113 / me=umh / subme=10 / psy=1 / psy_rd=0.90:0.10 / mixed_ref=1 / me_range=24 / chroma_me=1 / trellis=2 / 8x8dct=1 / cqm=0 / deadzone=21,11 / fast_pskip=0 / chroma_qp_offset=-3 / threads=6 / sliced_threads=0 / nr=0 / decimate=0 / interlaced=0 / bluray_compat=0 / constrained_intra=0 / bframes=8 / b_pyramid=2 / b_adapt=2 / b_bias=0 / direct=3 / weightb=1 / open_gop=0 / weightp=2 / keyint=240 / keyint_min=23 / scenecut=40 / intra_refresh=0 / rc=2pass / mbtree=0 / bitrate=8675 / ratetol=1.0 / qcomp=0.70 / qpmin=0 / qpmax=69 / qpstep=4 / cplxblur=20.0 / qblur=0.5 / ip_ratio=1.40 / pb_ratio=1.30 / aq=2:0.70
Язык : Italian
Default : Да
Forced : Нет
Аудио
Идентификатор : 2
Формат : AC-3
Формат/Информация : Audio Coding 3
Расширение режима : CM (complete main)
Параметр Endianness формата : Big
Режим смешивания : Header stripping
Идентификатор кодека : A_AC3
Продолжительность : 1 ч. 37 м.
Вид битрейта : Постоянный
Битрейт : 448 Кбит/сек
Каналы : 6 каналов
Расположение каналов : Front: L C R, Side: L R, LFE
Частота : 48,0 КГц
Битовая глубина : 16 бит
Метод сжатия : С потерями
Размер потока : 312 Мбайт (5%)
Заголовок : Профессиональный дублированный (R5), AC-3 448 kbps 5.1
Язык : Russian
Default : Да
Forced : Нет
Меню
00:00:00.000 : it:Chapter 01
00:03:42.097 : it:Chapter 02
00:06:25.677 : it:Chapter 03
00:08:25.547 : it:Chapter 04
00:10:05.522 : it:Chapter 05
00:12:17.612 : it:Chapter 06
00:17:59.328 : it:Chapter 07
00:22:55.749 : it:Chapter 08
00:24:48.904 : it:Chapter 09
00:28:05.392 : it:Chapter 10
00:32:40.333 : it:Chapter 11
00:35:47.437 : it:Chapter 12
00:39:24.070 : it:Chapter 13
00:42:17.160 : it:Chapter 14
00:47:51.118 : it:Chapter 15
00:50:20.434 : it:Chapter 16
00:53:14.316 : it:Chapter 17
00:56:01.900 : it:Chapter 18
00:57:59.810 : it:Chapter 19
01:03:02.612 : it:Chapter 20
01:06:55.303 : it:Chapter 21
01:11:18.941 : it:Chapter 22
01:14:29.799 : it:Chapter 23
01:19:12.623 : it:Chapter 24
01:21:04.818 : it:Chapter 25
01:27:16.064 : it:Chapter 26

Скриншоты


_________________
Правообладатели, убейтесь об эту надпись.
[Торрент-статистика]
[Профиль]  [ЛС] 
Показать сообщения:    
Ответить на тему

Текущее время: Сегодня 09:46

Часовой пояс: GMT + 4



Вы не можете начинать темы
Вы не можете отвечать на сообщения
Вы не можете редактировать свои сообщения
Вы не можете удалять свои сообщения
Вы не можете голосовать в опросах
Вы не можете прикреплять файлы к сообщениям
Вы не можете скачивать файлы