Джанго освобожденный / Django Unchained (Квентин Тарантино / Quentin Tarantino) [2012 г., драма, комедия, приключения, вестерн, BDRip-AVC 1080p] [Лицензия]

Ответить на тему
 
Автор
Сообщение

ArtZak ®

Пол:

Стаж: 5 лет 1 месяц

Сообщений: 3008

Репутация: 1363 [+] [-]

Откуда: Россия

Пост 19-Янв-2013 18:03

[Цитировать] 

Джанго освобожденный / Django Unchained
«Они забрали его свободу. Он заберёт у них всё.»
- Год выпуска: 2012
Страна: США
Жанр: драма, комедия, приключения, вестерн
Продолжительность: 02:45:22
Перевод:
  • Профессиональный (полное дублирование) [Лицензия]
  • Авторский одноголосый, закадровый (Ю. Сербин)
  • Авторский одноголосый, закадровый (А. Дольский)
Субтитры: Русские, английские, румынские
Режиссер: Квентин Тарантино / Quentin Tarantino
Производство: Brown 26 Productions, Columbia Pictures, Double Feature Films, Super Cool Man Shoe Too, Super Cool ManChu, The Weinstein Company LLC- -В ролях:
Джейми Фокс, Кристоф Вальц, Леонардо ДиКаприо, Керри Вашингтон, Сэмюэл Л. Джексон, Уолтон Гоггинс, Деннис Кристофер, Джеймс Римар, Майкл Паркс
Дон Джонсон и др.
Описание:
Освобождённый раб Джанго отправляется на поиски своей жены Брумхильды, чтобы спасти её от гнета рабовладельца — хозяина плантации в Миссисипи Кельвина Кэнди. Мистер Кэнди очень жесток и опасен. Он владеет ночным клубом с плохой репутацией Candyland, где эксплуатирует рабынь, заставляя их обслуживать развратных клиентов, а рабов злодей использует в боях, где их ждет неминуемая гибель.
Сэмпл: http://multi-up.com/859806
Тип релиза: BDRip-AVC 1080p
Контейнер: MKV
Видео: AVC, 1920x800 (2.40:1), 23.976 fps, 13.3 Mbps (0.341 bit/pixel)
Аудио #1: AC-3, 48.0 KHz, 6 ch, 640 Kbps, CBR (Russian) (Дубляж, CEE)
Аудио #2: DTS, 48.0 KHz, 6 ch, 1 510 Kbps, CBR (Russian) (Ю. Сербин)
Аудио #3: AC-3, 48.0 KHz, 6 ch, 448 Kbps, CBR (Russian) (А. Дольский)
Аудио #4: DTS, 48.0 KHz, 6 ch, 1 510 Kbps, CBR (English) (Оригинал)

MI

General
Unique ID : 230254494885010402522202150605057705345 (0xAD3967144256E1DFB301441C38C04581)
Complete name : D:\Downloads\Django.Unchained.2012.1080p.BluRay.DTS.x264.3xRus.Eng.Subs-HDWing.mkv
Format : Matroska
Format version : Version 1
File size : 20.1 GiB
Duration : 2h 49mn
Overall bit rate : 17.0 Mbps
Encoded date : UTC 2013-04-27 11:46:55
Writing application : mkvmerge v2.5.3 ('Boogie') built on Mar 7 2009 15:00:41
Writing library : libebml v0.7.7 + libmatroska v0.8.1
Video
ID : 1
Format : AVC
Format/Info : Advanced Video Codec
Format profile : High@L4.1
Format settings, CABAC : Yes
Format settings, ReFrames : 5 frames
Codec ID : V_MPEG4/ISO/AVC
Duration : 2h 49mn
Bit rate : 12.5 Mbps
Nominal bit rate : 13.3 Mbps
Width : 1 920 pixels
Height : 800 pixels
Display aspect ratio : 2.40:1
Frame rate mode : Constant
Frame rate : 23.976 fps
Color space : YUV
Chroma subsampling : 4:2:0
Bit depth : 8 bits
Scan type : Progressive
Bits/(Pixel*Frame) : 0.341
Stream size : 14.9 GiB (74%)
Writing library : x264 core 130 r2273 b3065e6
Encoding settings : cabac=1 / ref=5 / deblock=1:-3:-3 / analyse=0x3:0x113 / me=umh / subme=11 / psy=1 / psy_rd=1.10:0.00 / mixed_ref=1 / me_range=48 / chroma_me=1 / trellis=2 / 8x8dct=1 / cqm=0 / deadzone=21,11 / fast_pskip=0 / chroma_qp_offset=-2 / threads=18 / lookahead_threads=3 / sliced_threads=0 / nr=0 / decimate=0 / interlaced=0 / bluray_compat=0 / constrained_intra=0 / bframes=8 / b_pyramid=2 / b_adapt=2 / b_bias=0 / direct=3 / weightb=1 / open_gop=0 / weightp=2 / keyint=240 / keyint_min=24 / scenecut=40 / intra_refresh=0 / rc=2pass / mbtree=0 / bitrate=13300 / ratetol=1.0 / qcomp=0.70 / qpmin=0 / qpmax=69 / qpstep=4 / cplxblur=20.0 / qblur=0.5 / ip_ratio=1.20 / pb_ratio=1.20 / aq=1:0.80
Language : English
Default : Yes
Forced : No
Audio #1
ID : 2
Format : AC-3
Format/Info : Audio Coding 3
Mode extension : CM (complete main)
Format settings, Endianness : Big
Codec ID : A_AC3
Duration : 2h 49mn
Bit rate mode : Constant
Bit rate : 640 Kbps
Channel(s) : 6 channels
Channel positions : Front: L C R, Side: L R, LFE
Sampling rate : 48.0 KHz
Bit depth : 16 bits
Compression mode : Lossy
Stream size : 776 MiB (4%)
Language : Russian
Default : No
Forced : No
Audio #2
ID : 3
Format : DTS
Format/Info : Digital Theater Systems
Mode : 16
Format settings, Endianness : Big
Codec ID : A_DTS
Duration : 2h 49mn
Bit rate mode : Constant
Bit rate : 1 509 Kbps
Channel(s) : 6 channels
Channel positions : Front: L C R, Side: L R, LFE
Sampling rate : 48.0 KHz
Bit depth : 24 bits
Compression mode : Lossy
Delay relative to video : 22ms
Stream size : 1.79 GiB (9%)
Title : DTS 5.1 @ 1.5 Mbps – Одноголосый закадровый (Ю.Сербин)
Language : Russian
Default : No
Forced : No
Audio #3
ID : 4
Format : AC-3
Format/Info : Audio Coding 3
Mode extension : CM (complete main)
Format settings, Endianness : Big
Codec ID : A_AC3
Duration : 2h 49mn
Bit rate mode : Constant
Bit rate : 448 Kbps
Channel(s) : 6 channels
Channel positions : Front: L C R, Side: L R, LFE
Sampling rate : 48.0 KHz
Bit depth : 16 bits
Compression mode : Lossy
Stream size : 543 MiB (3%)
Language : Russian
Default : Yes
Forced : No
Audio #4
ID : 5
Format : DTS
Format/Info : Digital Theater Systems
Mode : 16
Format settings, Endianness : Big
Codec ID : A_DTS
Duration : 2h 49mn
Bit rate mode : Constant
Bit rate : 1 509 Kbps
Channel(s) : 6 channels
Channel positions : Front: L C R, Side: L R, LFE
Sampling rate : 48.0 KHz
Bit depth : 24 bits
Compression mode : Lossy
Delay relative to video : 11ms
Stream size : 1.79 GiB (9%)
Language : English
Default : No
Forced : No
Text #1
ID : 6
Format : UTF-8
Codec ID : S_TEXT/UTF8
Codec ID/Info : UTF-8 Plain Text
Title : Romanian
Language : Romanian
Default : Yes
Forced : No
Text #2
ID : 7
Format : UTF-8
Codec ID : S_TEXT/UTF8
Codec ID/Info : UTF-8 Plain Text
Language : Russian
Default : No
Forced : No
Text #3
ID : 8
Format : UTF-8
Codec ID : S_TEXT/UTF8
Codec ID/Info : UTF-8 Plain Text
Language : English
Default : No
Forced : No
Menu
00:00:00.000 : en:00:00:00.000
00:03:36.466 : en:00:03:36.466
00:12:47.934 : en:00:12:47.934
00:18:49.420 : en:00:18:49.420
00:26:48.273 : en:00:26:48.273
00:31:44.528 : en:00:31:44.528
00:40:27.133 : en:00:40:27.133
00:46:05.513 : en:00:46:05.513
00:52:36.862 : en:00:52:36.862
00:58:12.823 : en:00:58:12.823
01:02:20.320 : en:01:02:20.320
01:12:13.496 : en:01:12:13.496
01:18:35.794 : en:01:18:35.794
01:26:08.038 : en:01:26:08.038
01:34:49.642 : en:01:34:49.642
01:40:52.380 : en:01:40:52.380
01:45:34.036 : en:01:45:34.036
01:50:01.094 : en:01:50:01.094
01:55:03.980 : en:01:55:03.980
02:03:54.969 : en:02:03:54.969
02:08:14.103 : en:02:08:14.103
02:14:14.380 : en:02:14:14.380
02:17:28.991 : en:02:17:28.991
02:22:32.544 : en:02:22:32.544
02:26:28.530 : en:02:26:28.530
02:33:00.463 : en:02:33:00.463
02:35:41.999 : en:02:35:41.999
02:41:30.931 : en:02:41:30.931

Скриншоты




Последний раз редактировалось: ArtZak (2013-04-28 01:39), всего редактировалось 3 раз(а)
[Торрент-статистика]
[Профиль]  [ЛС] 
Показать сообщения:    
Ответить на тему

Текущее время: Сегодня 12:09

Часовой пояс: GMT + 4



Вы не можете начинать темы
Вы не можете отвечать на сообщения
Вы не можете редактировать свои сообщения
Вы не можете удалять свои сообщения
Вы не можете голосовать в опросах
Вы не можете прикреплять файлы к сообщениям
Вы не можете скачивать файлы