Возвращение героя / The Last Stand (Ким Чжи Ун) [2013 г., Боевик, триллер, криминал, BDRip, 1080p|9]

Ответить на тему
 
Автор
Сообщение

alien.09 ®

Пол:

Стаж: 4 года 4 месяца

Сообщений: 753

Репутация: 559 [+] [-]

Пост 24-Апр-2013 23:25

[Цитировать] 

Возвращение героя / The Last Stand
Год выпуска: 2013
Страна: США
Жанр: Боевик, триллер, криминал
Продолжительность: 01:47:03
Перевод: Профессиональный (полное дублирование)
Режиссер: Ким Чжи Ун
В ролях: Арнольд Шварценеггер, Форест Уитакер, Джонни Ноксвил, Родриго Санторо, Джейми Александр, Луис Гузман, Эдуардо Норьега, Петер Стормаре, Зэк Гилфорд, Генезис Родригез
Описание: Самая опасная и жестокая банда наркоторговцев сбегает из-под конвоя ФБР. Прихватив заложника, они мчатся к мексиканской границе на бронированной, оснащенной первоклассным вооружением машине. У них на пути стоит лишь тихий городок, за порядком в котором следит шериф Оуенс. Когда-то он был одним из лучших полицейских Лос-Анджелеса, теперь он вернулся...


Тип релиза: BDRip
Контейнер: MKV
Видео кодек: H264 (AVC)
Аудио кодек: AC3 (Dolby Digital)
Видео: AVC at 9346 Кбит/сек, 1920 x 804 (2.388) at 24.000 fps
Аудио: AC-3 at 640 Кбит/сек, 6 каналов, 48,0 КГц
Чаптеры: Есть

MI

Общее
Уникальный идентификатор : 186210517623588349909422765102992824332 (0x8C16D757E8502AA089D219368D85980C)
Полное имя : C:\Users\Gary\Внеха\Возвращение героя 1920х.mkv
Формат : Matroska
Версия формата : Version 2
Размер файла : 7,47 Гбайт
Продолжительность : 1 ч. 47 м.
Общий поток : 9986 Кбит/сек
Название фильма : Возвращение героя.(2013).BDRip.1080p.(DVD9).[NoLimits-Team]
Дата кодирования : UTC 2013-04-24 18:27:26
Программа кодирования : mkvmerge v5.3.0 ('I could have danced') built on Mar 4 2012 19:18:32
Библиотека кодирования : libebml v1.2.3 + libmatroska v1.3.0
Видео
Идентификатор : 1
Формат : AVC
Формат/Информация : Advanced Video Codec
Профиль формата : High@L4.1
Параметр CABAC формата : Да
Параметр ReFrames формата : 5 кадров
Режим смешивания : Header stripping
Идентификатор кодека : V_MPEG4/ISO/AVC
Продолжительность : 1 ч. 47 м.
Битрейт : 9346 Кбит/сек
Ширина : 1920 пикселей
Высота : 804 пикселя
Соотношение сторон : 2,40:1
Режим частоты кадров : Постоянный
Частота кадров : 24,000 кадра/сек
Цветовое пространство : YUV
Субдискретизация насыщенности : 4:2:0
Битовая глубина : 8 бит
Тип развёртки : Прогрессивная
Бит/(Пиксели*Кадры) : 0.252
Размер потока : 6,84 Гбайт (92%)
Заголовок : Возвращение героя.(2013).BDRip.1080p.(DVD9).[NoLimits-Team]
Библиотека кодирования : x264 core 130 r2273 b3065e6
Настройки программы : cabac=1 / ref=5 / deblock=1:0:0 / analyse=0x3:0x133 / me=umh / subme=11 / psy=1 / psy_rd=1.00:0.00 / mixed_ref=1 / me_range=64 / chroma_me=1 / trellis=2 / 8x8dct=1 / cqm=0 / deadzone=21,11 / fast_pskip=0 / chroma_qp_offset=-2 / threads=9 / lookahead_threads=2 / sliced_threads=0 / nr=0 / decimate=1 / interlaced=0 / bluray_compat=0 / constrained_intra=0 / bframes=12 / b_pyramid=2 / b_adapt=2 / b_bias=0 / direct=3 / weightb=1 / open_gop=0 / weightp=2 / keyint=250 / keyint_min=23 / scenecut=40 / intra_refresh=0 / rc_lookahead=60 / rc=2pass / mbtree=1 / bitrate=9346 / ratetol=1.0 / qcomp=0.60 / qpmin=0 / qpmax=69 / qpstep=4 / cplxblur=20.0 / qblur=0.5 / ip_ratio=1.40 / aq=1:1.00
Язык : English
Default : Да
Forced : Нет
Аудио
Идентификатор : 2
Формат : AC-3
Формат/Информация : Audio Coding 3
Расширение режима : CM (complete main)
Параметр Endianness формата : Big
Режим смешивания : Header stripping
Идентификатор кодека : A_AC3
Продолжительность : 1 ч. 47 м.
Вид битрейта : Постоянный
Битрейт : 640 Кбит/сек
Каналы : 6 каналов
Расположение каналов : Front: L C R, Side: L R, LFE
Частота : 48,0 КГц
Битовая глубина : 16 бит
Метод сжатия : С потерями
Размер потока : 490 Мбайт (6%)
Заголовок : Дублированный
Язык : Russian
Default : Да
Forced : Нет
Меню
00:00:00.000 : :Chapter 01
00:05:50.791 : :Chapter 02
00:13:07.375 : :Chapter 03
00:22:35.083 : :Chapter 04
00:32:58.791 : :Chapter 05
00:41:50.166 : :Chapter 06
00:48:05.750 : :Chapter 07
00:57:00.208 : :Chapter 08
01:07:55.291 : :Chapter 09
01:15:02.125 : :Chapter 10
01:22:42.458 : :Chapter 11
01:27:25.833 : :Chapter 12

Скриншоты


_________________
Правообладатели, убейтесь об эту надпись.
[Торрент-статистика]
[Профиль]  [ЛС] 

alien.09 ®

Пол:

Стаж: 4 года 4 месяца

Сообщений: 753

Репутация: 559 [+] [-]

Пост 24-Апр-2013 23:39 (спустя 13 минут)

[Цитировать] 

семпл делать?

_________________
Правообладатели, убейтесь об эту надпись.
[Торрент-статистика]
[Профиль]  [ЛС] 

ArtZak

Пол:

Стаж: 5 лет 9 месяцев

Сообщений: 2996

Репутация: 1363 [+] [-]

Откуда: Россия

Пост 25-Апр-2013 01:39 (спустя 2 часа)

[Цитировать] 

alien.09, необязательно. Если есть - выкладывай. Если нет - не надо.
[Торрент-статистика]
[Профиль]  [ЛС] 
Показать сообщения:    
Ответить на тему

Текущее время: Сегодня 12:29

Часовой пояс: GMT + 4



Вы не можете начинать темы
Вы не можете отвечать на сообщения
Вы не можете редактировать свои сообщения
Вы не можете удалять свои сообщения
Вы не можете голосовать в опросах
Вы не можете прикреплять файлы к сообщениям
Вы не можете скачивать файлы