Клетка / The Cell (Тарсем Синх) [2000 г., Триллер, BDRip-AVC]

Ответить на тему
 
Автор
Сообщение

alien.09 ®

Пол:

Стаж: 4 года 4 месяца

Сообщений: 753

Репутация: 559 [+] [-]

Пост 15-Апр-2013 22:39

[Цитировать] 

Клетка / The Cell
Год выпуска: 2000
Страна: Германия, США
Жанр: Триллер
Продолжительность: 01:47:10
Перевод: Профессиональный (полное дублирование)
Режиссер: Тарсем Синх
В ролях: Дженнифер Лопес, Винсент Д'Онофрио, Винс Вон, Колтон Джеймс, Дилан Бэйкер, Марианн Жан-Баптист
Описание: Карл, маньяк- психопат, он бросает женщин в стеклянную клетку и снимает на видео, как постоянно текущая с потолка вода за 40 часов наполняет клетку до краев и уже помешавшаяся рассудком жертва захлебывается. По всему телу маньяка вживлены стальные кольца, за которые он подвешивает себя цепями, и в таком виде просматривает отснятый материал. Арестовать его крайне сложно, но после очередного похищения полиции повезло, маньяк схвачен. Однако у него начинается шизофренический припадок после которого он впадает в кому. Времени остается все меньше, а местонахождение девушки неизвестно. И тут появляется Кэтрин (Jennifer Lopez) врач психолог обладающая уникальной методикой проникновения в подсознание пациентов находящихся в коме. Только она может узнать, где искать девушку. Используя свои способности, Кэтрин погружается в странный, завораживающий, не имеющий ничего общего с реальной жизнью, мир маньяка. Но в этом мире, созданным воображением извращенца все законы подчиняются только своему хозяину.В этот мир легко попасть, но выбраться из него почти невозможно. Теперь опасность угрожает и психологу...
Тип релиза: BDRip-AVC
Контейнер: MKV
Видео кодек: х264
Аудио кодек: AC3 (Dolby Digital)
Видео: 1280 x 536 (2.388) at 23.976 fps 2077 Kbps
Аудио #1: Русский: 48 kHz AC3 Dolby Digital 6ch 384.00 kbps avg
Аудио #2:Английский: 48 kHz AC3 Dolby Digital 6ch 448.00 kbps avg
Субтитры #1: UTF-8, Russian [SRT]
Субтитры #2: UTF-8, English [SRT]

MI

Общее
Уникальный идентификатор : 251377277348807567148154244526289723588 (0xBD1D80A8FB62F8D9AE7D4674573C20C4)
Полное имя : C:\Users\Gary\Desktop\Клетка.mkv
Формат : Matroska
Версия формата : Version 2
Размер файла : 2,18 Гбайт
Продолжительность : 1 ч. 47 м.
Общий поток : 2911 Кбит/сек
Кодирование произвёл : [tRuAVC]@lolkin@
Дата кодирования : UTC 2009-08-14 09:10:19
Программа кодирования : mkvmerge v2.9.0 ('Moanin'') built on May 22 2009 17:46:31
Библиотека кодирования : libebml v0.7.7 + libmatroska v0.8.1
TITLE : The Cell (2000)
DATE_RELEASED : 9th August 2009
COMMENT : Blueray Disk Rip
Видео
Идентификатор : 1
Формат : AVC
Формат/Информация : Advanced Video Codec
Профиль формата : High@L4.1
Параметр CABAC формата : Да
Параметр ReFrames формата : 8 кадров
Идентификатор кодека : V_MPEG4/ISO/AVC
Продолжительность : 1 ч. 47 м.
Битрейт : 2077 Кбит/сек
Ширина : 1280 пикселей
Высота : 536 пикселей
Соотношение сторон : 2,40:1
Режим частоты кадров : Постоянный
Частота кадров : 23,976 кадра/сек
Цветовое пространство : YUV
Субдискретизация насыщенности : 4:2:0
Битовая глубина : 8 бит
Тип развёртки : Прогрессивная
Бит/(Пиксели*Кадры) : 0.126
Размер потока : 1,51 Гбайт (69%)
Заголовок : The Cell
Библиотека кодирования : x264 core 68 r1181M 49bf767
Настройки программы : cabac=1 / ref=8 / deblock=1:-2:-1 / analyse=0x3:0x113 / me=umh / subme=9 / psy_rd=0.7:0.2 / mixed_ref=1 / me_range=32 / chroma_me=1 / trellis=2 / 8x8dct=1 / cqm=0 / deadzone=21,11 / chroma_qp_offset=-6 / threads=3 / nr=0 / decimate=0 / mbaff=0 / bframes=8 / b_pyramid=1 / b_adapt=2 / b_bias=0 / direct=1 / wpredb=1 / keyint=250 / keyint_min=25 / scenecut=40 / rc=2pass / bitrate=2077 / ratetol=1.0 / qcomp=0.60 / qpmin=10 / qpmax=51 / qpstep=4 / cplxblur=20.0 / qblur=0.5 / vbv_maxrate=50000 / vbv_bufsize=62500 / ip_ratio=1.40 / pb_ratio=1.30 / aq=1:0.90 / zones=147460,154168,q=30
Язык : English
Default : Да
Forced : Нет
Аудио #1
Идентификатор : 2
Формат : AC-3
Формат/Информация : Audio Coding 3
Расширение режима : CM (complete main)
Параметр Endianness формата : Big
Идентификатор кодека : A_AC3
Продолжительность : 1 ч. 47 м.
Вид битрейта : Постоянный
Битрейт : 384 Кбит/сек
Каналы : 6 каналов
Расположение каналов : Front: L C R, Side: L R, LFE
Частота : 48,0 КГц
Битовая глубина : 16 бит
Метод сжатия : С потерями
Размер потока : 294 Мбайт (13%)
Заголовок : rus
Язык : Russian
Default : Да
Forced : Нет
Аудио #2
Идентификатор : 3
Формат : AC-3
Формат/Информация : Audio Coding 3
Расширение режима : CM (complete main)
Параметр Endianness формата : Big
Идентификатор кодека : A_AC3
Продолжительность : 1 ч. 47 м.
Вид битрейта : Постоянный
Битрейт : 448 Кбит/сек
Каналы : 6 каналов
Расположение каналов : Front: L C R, Side: L R, LFE
Частота : 48,0 КГц
Битовая глубина : 16 бит
Метод сжатия : С потерями
Размер потока : 343 Мбайт (15%)
Заголовок : eng
Язык : English
Default : Нет
Forced : Нет
Текст #1
Идентификатор : 4
Формат : UTF-8
Идентификатор кодека : S_TEXT/UTF8
Идентификатор кодека/Информация : UTF-8 Plain Text
Заголовок : rus
Язык : Russian
Default : Нет
Forced : Нет
Текст #2
Идентификатор : 5
Формат : UTF-8
Идентификатор кодека : S_TEXT/UTF8
Идентификатор кодека/Информация : UTF-8 Plain Text
Заголовок : rus
Язык : Russian
Default : Да
Forced : Нет
Текст #3
Идентификатор : 6
Формат : UTF-8
Идентификатор кодека : S_TEXT/UTF8
Идентификатор кодека/Информация : UTF-8 Plain Text
Заголовок : eng
Язык : English
Default : Нет
Forced : Нет
Меню
00:00:00.000 : :Вступительные титры
00:06:40.233 : :Эдвард
00:12:44.764 : :Кукла
00:18:29.108 : :Новая жертва
00:26:28.587 : :Захват
00:34:32.904 : :Найти девушку
00:40:10.325 : :В его мире
00:47:55.873 : :Вера и реальность
00:56:04.736 : :Второй сеанс
01:01:30.687 : :Моя первая
01:07:47.063 : :На помощь
01:14:23.459 : :В ловушке
01:21:51.532 : :Я знаю где она
01:26:14.169 : :Спасение
01:32:09.733 : :Заключение
01:42:34.148 : :Финальные титры

Скриншоты


_________________
Правообладатели, убейтесь об эту надпись.
[Торрент-статистика]
[Профиль]  [ЛС] 
Показать сообщения:    
Ответить на тему

Текущее время: Сегодня 09:51

Часовой пояс: GMT + 4



Вы не можете начинать темы
Вы не можете отвечать на сообщения
Вы не можете редактировать свои сообщения
Вы не можете удалять свои сообщения
Вы не можете голосовать в опросах
Вы не можете прикреплять файлы к сообщениям
Вы не можете скачивать файлы