Отверженные / Les Misérables (Том Хупер / Tom Hooper) [2012 г., мюзикл, драма, мелодрама, BDRip-AVC 1080p] [Лицензия]

Ответить на тему
 
Автор
Сообщение

ArtZak ®

Пол:

Стаж: 6 лет

Сообщений: 2996

Репутация: 1363 [+] [-]

Откуда: Россия

Пост 19-Янв-2013 03:27

[Цитировать] 

Отверженные / Les Misérables
«Борьба. Мечта. Надежда. Любовь.»

Год выпуска: 2012
Страна: Великобритания
Жанр: мюзикл, драма, мелодрама
Продолжительность: 02:37:48
Перевод: Профессиональный (полное дублирование) [Лицензия]
Субтитры: Русские (песни,полные), Английские
Режиссер: Том Хупер / Tom Hooper- -В ролях:
Хью Джекман, Рассел Кроу, Энн Хэтэуэй, Аманда Сайфред, Эдди Редмэйн, Хелена Бонем Картер, Саша Барон Коэн, Аарон Твейт, Саманта Баркс, Дэниэл Хаттлстоун и др.
Описание:
Действие развивается в начале XIX столетия. Беглый каторжник Жан Вальжан, приговоренный к тюремному заключению, вынужден долгие годы скрываться от жестокого правосудия. Инспектор парижской полиции Жавер считает его поимку делом всей своей жизни. После смерти Фантины — женщины, за судьбу которой Жан Вальжан считал себя в ответе, — единственным близким ему человеком остается ее дочь Козетта. Ради счастья девушки Жан готов на все.
Сэмпл: http://sendfile.su/797479
Тип релиза: BDRip (источник: Blu-ray Disc)
Контейнер: MKV
Видео кодек: x264
Аудио кодек: AC3 (Dolby Digital)
Видео: AVC, 1920x1040 (16:9), 23.976 fps, 6 145 Kbps (0.128 bit/pixel)
Аудио #1: AC-3, 48.0 KHz, 6 ch, 448 Kbps, CBR (Russian)
Аудио #2: AC-3, 48.0 KHz, 6 ch, 448 Kbps, CBR (English)

x264

x264 [info]: frame I:1589 Avg QP:17.92 size:181632
x264 [info]: frame P:45146 Avg QP:20.34 size: 57557
x264 [info]: frame B:180270 Avg QP:22.19 size: 24321

MI

General
Unique ID : 237290965570813068539566353351001128562 (0xB28493DE6A548DE88E5D799BEED23E72)
Complete name : D:\Films\Les.Miserables.2012.BDRip.1080p.Rus.Eng.mkv
Format : Matroska
Format version : Version 2
File size : 7.76 GiB
Duration : 2h 37mn
Overall bit rate : 7 042 Kbps
Movie name : Отверженные / Les Misérables (2012)
Encoded date : UTC 2013-04-18 17:04:46
Writing application : mkvmerge v5.8.0 ('No Sleep / Pillow') built on Sep 2 2012 15:37:04
Writing library : libebml v1.2.3 + libmatroska v1.3.0
Video
ID : 1
Format : AVC
Format/Info : Advanced Video Codec
Format profile : High@L4.1
Format settings, CABAC : Yes
Format settings, ReFrames : 4 frames
Codec ID : V_MPEG4/ISO/AVC
Duration : 2h 37mn
Bit rate : 6 145 Kbps
Width : 1 920 pixels
Height : 1 040 pixels
Display aspect ratio : 1.85:1
Frame rate mode : Constant
Frame rate : 23.976 fps
Color space : YUV
Chroma subsampling : 4:2:0
Bit depth : 8 bits
Scan type : Progressive
Bits/(Pixel*Frame) : 0.128
Stream size : 6.62 GiB (85%)
Title : Release by AlexKa
Writing library : x264 core 130 r2273 b3065e6
Encoding settings : cabac=1 / ref=4 / deblock=1:0:0 / analyse=0x3:0x133 / me=umh / subme=10 / psy=1 / psy_rd=1.10:0.00 / mixed_ref=1 / me_range=32 / chroma_me=1 / trellis=2 / 8x8dct=1 / cqm=0 / deadzone=21,11 / fast_pskip=0 / chroma_qp_offset=-2 / threads=12 / lookahead_threads=1 / sliced_threads=0 / nr=0 / decimate=1 / interlaced=0 / bluray_compat=0 / constrained_intra=0 / bframes=6 / b_pyramid=2 / b_adapt=2 / b_bias=0 / direct=3 / weightb=1 / open_gop=0 / weightp=2 / keyint=240 / keyint_min=23 / scenecut=40 / intra_refresh=0 / rc_lookahead=80 / rc=2pass / mbtree=1 / bitrate=6145 / ratetol=1.0 / qcomp=0.60 / qpmin=0 / qpmax=69 / qpstep=4 / cplxblur=20.0 / qblur=0.5 / ip_ratio=1.40 / aq=1:0.80
Language : English
Default : Yes
Forced : No
Audio #1
ID : 2
Format : AC-3
Format/Info : Audio Coding 3
Mode extension : CM (complete main)
Format settings, Endianness : Big
Codec ID : A_AC3
Duration : 2h 37mn
Bit rate mode : Constant
Bit rate : 448 Kbps
Channel(s) : 6 channels
Channel positions : Front: L C R, Side: L R, LFE
Sampling rate : 48.0 KHz
Bit depth : 16 bits
Compression mode : Lossy
Stream size : 506 MiB (6%)
Title : Rus
Language : Russian
Default : Yes
Forced : No
Audio #2
ID : 3
Format : AC-3
Format/Info : Audio Coding 3
Mode extension : CM (complete main)
Format settings, Endianness : Big
Codec ID : A_AC3
Duration : 2h 37mn
Bit rate mode : Constant
Bit rate : 448 Kbps
Channel(s) : 6 channels
Channel positions : Front: L C R, Side: L R, LFE
Sampling rate : 48.0 KHz
Bit depth : 16 bits
Compression mode : Lossy
Stream size : 506 MiB (6%)
Title : Eng
Language : English
Default : No
Forced : No
Text #1
ID : 4
Format : UTF-8
Codec ID : S_TEXT/UTF8
Codec ID/Info : UTF-8 Plain Text
Title : Rus songs
Language : Russian
Default : Yes
Forced : Yes
Text #2
ID : 5
Format : UTF-8
Codec ID : S_TEXT/UTF8
Codec ID/Info : UTF-8 Plain Text
Title : Rus full
Language : Russian
Default : No
Forced : No
Text #3
ID : 6
Format : UTF-8
Codec ID : S_TEXT/UTF8
Codec ID/Info : UTF-8 Plain Text
Title : Eng
Language : English
Default : No
Forced : No
Menu
00:00:00.000 : en:Entr'acte
00:07:22.817 : en:On My Own
00:14:31.996 : en:Building the Barricade
00:22:22.967 : en:Javert's Arrival
00:31:52.619 : en:Little People
00:40:13.661 : en:A Little Fall of Rain
00:45:14.295 : en:First Attack
00:52:43.494 : en:Drink with Me
01:00:40.846 : en:Bring Him Home
01:06:41.122 : en:The Final Battle
01:15:51.088 : en:The Sewers
01:20:21.650 : en:Dog Eats Dog
01:27:04.344 : en:Javert's Suicide
01:35:34.729 : en:Turning
01:42:10.291 : en:Empty Chairs at Empty Tables
01:52:20.859 : en:Every Day
02:03:01.082 : en:A Heart Full of Love - Reprise
02:10:09.343 : en:The Wedding Chorale
02:21:18.178 : en:Beggars at the Feast
02:29:41.347 : en:Epilogue (Finale)

Скриншоты




Последний раз редактировалось: ArtZak (2013-04-24 02:53), всего редактировалось 1 раз
[Торрент-статистика]
[Профиль]  [ЛС] 
Показать сообщения:    
Ответить на тему

Текущее время: Сегодня 04:07

Часовой пояс: GMT + 4



Вы не можете начинать темы
Вы не можете отвечать на сообщения
Вы не можете редактировать свои сообщения
Вы не можете удалять свои сообщения
Вы не можете голосовать в опросах
Вы не можете прикреплять файлы к сообщениям
Вы не можете скачивать файлы