Мрачные тени / Dark Shadows (Тим Бёртон / Tim Burton) [2012 г., Фэнтези, мелодрама, комедия, HQRip-AVC 1080p]

Ответить на тему
 
Автор
Сообщение

ArtZak ®

Пол:

Стаж: 9 лет 5 месяцев

Сообщений: 2829

Репутация: 1366 [+] [-]

Откуда: Россия

Пост 04-Сен-2012 16:22

[Цитировать] 

Мрачные тени / Dark Shadows
«В семье не без вампира»
Год выпуска: 2012
Страна: США
Жанр: Фэнтези, мелодрама, комедия
Продолжительность: 01:53:04
Перевод: Профессиональный (полное дублирование)
Режиссер: Тим Бёртон / Tim Burton- -В ролях: Джонни Депп, Мишель Пфайффер, Хелена Бонем Картер, Ева Грин, Джеки Эрл Хейли, Джонни Ли Миллер, Белла Хиткот, Хлоя Грейс Морец, Гулливер МакГрат
Описание: Владелец поместья Коллинвуд, Барнабас Коллинз, богат, властен и слывет неисправимым Казановой, пока не совершает роковую ошибку, разбив сердце Анжелики Бошар. Будучи ведьмой в буквальном смысле этого слова, она обрекает его на судьбу, худшую, чем сама смерть — обращает его в вампира и хоронит заживо. Два века спустя Барнабаса случайно освобождают из склепа, и тот оказывается в очень изменившемся мире 1972 года. Он возвращается в Коллинвуд и находит в руинах это некогда величественное здание. Жалкие потомки его семьи сохранились лишь немногим лучше родового гнезда, и у каждого из них есть свои «скелеты в шкафу».
Сэмпл: http://goo.gl/d3DdH

Тип релиза: HQRip 1080p
Контейнер: MKV
Видео: MPEG-4 AVC Video / 12.5 Mbps / 1920 x 1080 p / 23.976 fps / 16:9 / High Profile 4.1
Аудио #1: Russian / Dolby Digital Audio / 5.1 / 48 kHz / 448 kbps / DN -4dB
Аудио #2: Ukrainian / Dolby Digital Audio / 5.1 / 48 kHz / 448 kbps / DN -4dB
Аудио #3: DTS Audio English 5.1 / 48 kHz / 1509 kbps / 16-bit

MI

Код:
General
Complete name                    : X:\Temp\Dark.Shadows.2012.1080p.BluRay.Rus.Ukr.HDCLUB.mkv
Format                           : Matroska
File size                        : 11.8 GiB
Duration                         : 1h 53mn
Overall bit rate                 : 14.9 Mbps
Movie name                       : Dark Shadows (2012) - Release for HDCLUB
Encoded date                     : UTC 2012-09-03 20:54:45
Writing application              : mkvmerge v3.4.0 ('Rapunzel') built on May 15 2010 09:38:20
Writing library                  : libebml v0.8.0 + libmatroska v0.9.0
Video
ID                               : 1
Format                           : AVC
Format/Info                      : Advanced Video Codec
Format profile                   : High@L4.1
Format settings, CABAC           : Yes
Format settings, ReFrames        : 4 frames
Muxing mode                      : Container profile=Unknown@4.1
Codec ID                         : V_MPEG4/ISO/AVC
Duration                         : 1h 53mn
Bit rate                         : 12.5 Mbps
Width                            : 1 920 pixels
Height                           : 1 080 pixels
Display aspect ratio             : 16:9
Frame rate                       : 23.976 fps
Color space                      : YUV
Chroma subsampling               : 4:2:0
Bit depth                        : 8 bits
Scan type                        : Progressive
Bits/(Pixel*Frame)               : 0.251
Stream size                      : 9.64 GiB (82%)
Title                            : Release for HDCLUB
Writing library                  : x264 core 125 r2208 d9d2288
Encoding settings                : cabac=1 / ref=4 / deblock=1:-3:-3 / analyse=0x3:0x133 / me=umh / subme=11 / psy=1 / psy_rd=1.00:0.05 / mixed_ref=1 / me_range=48 / chroma_me=1 / trellis=2 / 8x8dct=1 / cqm=0 / deadzone=21,11 / fast_pskip=0 / chroma_qp_offset=-3 / threads=18 / lookahead_threads=3 / sliced_threads=0 / nr=0 / decimate=0 / interlaced=0 / bluray_compat=0 / constrained_intra=0 / bframes=8 / b_pyramid=2 / b_adapt=2 / b_bias=0 / direct=3 / weightb=1 / open_gop=0 / weightp=2 / keyint=240 / keyint_min=24 / scenecut=40 / intra_refresh=0 / rc_lookahead=240 / rc=2pass / mbtree=1 / bitrate=12500 / ratetol=1.0 / qcomp=0.70 / qpmin=0 / qpmax=69 / qpstep=4 / cplxblur=20.0 / qblur=0.5 / ip_ratio=1.20 / aq=1:1.05
Language                         : English
Audio #1
ID                               : 2
Format                           : AC-3
Format/Info                      : Audio Coding 3
Mode extension                   : CM (complete main)
Codec ID                         : A_AC3
Duration                         : 1h 53mn
Bit rate mode                    : Constant
Bit rate                         : 448 Kbps
Channel(s)                       : 6 channels
Channel positions                : Front: L C R, Side: L R, LFE
Sampling rate                    : 48.0 KHz
Bit depth                        : 16 bits
Stream size                      : 362 MiB (3%)
Title                            : AC3 5.1 @ 448 kbps - DUB Blu-ray CEE
Language                         : Russian
Audio #2
ID                               : 3
Format                           : AC-3
Format/Info                      : Audio Coding 3
Mode extension                   : CM (complete main)
Codec ID                         : A_AC3
Duration                         : 1h 53mn
Bit rate mode                    : Constant
Bit rate                         : 448 Kbps
Channel(s)                       : 6 channels
Channel positions                : Front: L C R, Side: L R, LFE
Sampling rate                    : 48.0 KHz
Bit depth                        : 16 bits
Stream size                      : 362 MiB (3%)
Title                            : AC3 5.1 @ 448 kbps - DUB Blu-ray CEE
Language                         : Ukrainian
Audio #3
ID                               : 4
Format                           : DTS
Format/Info                      : Digital Theater Systems
Codec ID                         : A_DTS
Duration                         : 1h 53mn
Bit rate mode                    : Constant
Bit rate                         : 1 510 Kbps
Channel(s)                       : 6 channels
Channel positions                : Front: L C R, Side: L R, LFE
Sampling rate                    : 48.0 KHz
Bit depth                        : 16 bits
Video delay                      : 11ms
Stream size                      : 1.19 GiB (10%)
Title                            : DTS 5.1 @ 1536 kbps
Language                         : English
Text #1
ID                               : 5
Format                           : UTF-8
Codec ID                         : S_TEXT/UTF8
Codec ID/Info                    : UTF-8 Plain Text
Title                            : Forced
Language                         : Russian
Text #2
ID                               : 6
Format                           : UTF-8
Codec ID                         : S_TEXT/UTF8
Codec ID/Info                    : UTF-8 Plain Text
Language                         : Russian
Text #3
ID                               : 7
Format                           : UTF-8
Codec ID                         : S_TEXT/UTF8
Codec ID/Info                    : UTF-8 Plain Text
Language                         : English
Text #4
ID                               : 8
Format                           : UTF-8
Codec ID                         : S_TEXT/UTF8
Codec ID/Info                    : UTF-8 Plain Text
Title                            : SDH
Language                         : English
Menu
00:00:00.000                     : en:00:00:00.000
00:12:25.203                     : en:00:12:25.203
00:19:57.780                     : en:00:19:57.780
00:30:21.486                     : en:00:30:21.486
00:38:55.041                     : en:00:38:55.041
00:49:48.235                     : en:00:49:48.235
01:00:11.066                     : en:01:00:11.066
01:09:47.392                     : en:01:09:47.392
01:19:36.772                     : en:01:19:36.772
01:29:05.340                     : en:01:29:05.340
01:39:36.888                     : en:01:39:36.888
01:48:26.041                     : en:01:48:26.041

Скриншоты

[Торрент-статистика]
[Профиль]  [ЛС] 
Показать сообщения:    
Ответить на тему

Текущее время: Сегодня 10:34

Часовой пояс: GMT + 4



Вы не можете начинать темы
Вы не можете отвечать на сообщения
Вы не можете редактировать свои сообщения
Вы не можете удалять свои сообщения
Вы не можете голосовать в опросах
Вы не можете прикреплять файлы к сообщениям
Вы не можете скачивать файлы