Голодные игры / The Hunger Games (Гэри Росс) [2012, фантастика, боевик, приключения, BDRip, 1080p] R5

Ответить на тему
 
Автор
Сообщение

diim ®

Пол:

Стаж: 2 года 7 месяцев

Сообщений: 1034

Репутация: 112 [+] [-]

Пост 20-Авг-2012 09:10

[Цитировать] 

Голодные игры / The Hunger GamesГод выпуска: 2012
Страна: США
Слоган: «Да пребудет с вами удача»
Жанр: фантастика, боевик, приключения
Продолжительность: 02:22:33
Перевод: Профессиональный (полное дублирование) [лицензия]-Режиссер: Гэри Росс
В ролях: Дженнифер Лоуренс, Лайам Хемсворт, Джош Хатчерсон, Элизабет Бэнкс, Вуди Харрельсон, Стэнли Туччи, Ленни Кравиц, Уэс Бентли, Дональд Сазерленд, Уиллоу Шилдс, Сандра Эллис Лэфферти, Паула Малкомсон, Рода Гриффис, Сандино Мойя, Рэйко Боуман, Дуэйн Бойд, Энтони Рейнольдс-Бюджет: $78 000 000
Сборы в США: $407 483 257
Сборы в России: $13 405 279
Сборы в мире: $684 553 515-Описание: Будущее. Деспотичное государство ежегодно устраивает показательные игры на выживание, за которыми в прямом эфире следит весь мир. Жребий участвовать в Играх выпадает юной Китнисс и тайно влюбленному в нее Питу. Они знакомы с детства, но теперь должны стать врагами. Ведь по нерушимому закону Голодных игр победить может только один из 24 участников. Судьям не важно кто выиграет, главное - зрелище. И на этот раз зрелище будет незабываемым.-
MPAA: -Мировая премьера: 12 марта 2012
Релиз на DVD: 23 августа 2012, «Вольга»
Релиз на Blu-ray: 23 августа 2012, «Вольга»-Качество: BDRip, 1080p
Формат: Matroska
Видео: AVC; 1920x800 (2.40:1); 17375 Kbps; 23,976 fps; 0,472 bit/pixel
Аудио №1: DTS; 1509 Kbps; CBR; 6 ch; 16 bit Russian
Аудио №2: DTS; 1509 Kbps; CBR; 6 ch; 24 bit English
Субтитры: Russian, English-

Mediainfo

Формат : Matroska
Версия формата : Version 2
Размер файла : 20,7 Гбайт
Продолжительность : 2 ч. 22 м.
Общий поток : 20,8 Мбит/сек
Название фильма : --SCHUMAHER--
Дата кодирования : UTC 2012-08-19 07:03:22
Программа кодирования : mkvmerge v5.7.0 ('The Whirlwind') built on Jul 8 2012 20:08:51
Библиотека кодирования : libebml v1.2.3 + libmatroska v1.3.0
Видео
Идентификатор : 1
Формат : AVC
Формат/Информация : Advanced Video Codec
Профиль формата : High@L4.1
Параметр CABAC формата : Да
Параметр ReFrames формата : 5 кадров
Идентификатор кодека : V_MPEG4/ISO/AVC
Продолжительность : 2 ч. 22 м.
Битрейт : 17,8 Мбит/сек
Ширина : 1920 пикселей
Высота : 800 пикселей
Соотношение сторон : 2,40:1
Частота кадров : 23,976 кадра/сек
Цветовое пространство : YUV
Субдискретизация насыщенности : 4:2:0
Битовая глубина : 8 бит
Тип развёртки : Прогрессивная
Бит/(Пиксели*Кадры) : 0.483
Размер потока : 17,3 Гбайт (83%)
Библиотека кодирования : x264 core 125 r2208 d9d2288
Настройки программы : cabac=1 / ref=5 / deblock=1:-3:-3 / analyse=0x3:0x113 / me=umh / subme=11 / psy=1 / psy_rd=1.20:0.02 / mixed_ref=1 / me_range=48 / chroma_me=1 / trellis=2 / 8x8dct=1 / cqm=0 / deadzone=21,11 / fast_pskip=0 / chroma_qp_offset=-3 / threads=18 / lookahead_threads=3 / sliced_threads=0 / nr=0 / decimate=0 / interlaced=0 / bluray_compat=0 / constrained_intra=0 / bframes=9 / b_pyramid=2 / b_adapt=2 / b_bias=0 / direct=3 / weightb=1 / open_gop=0 / weightp=2 / keyint=240 / keyint_min=24 / scenecut=40 / intra_refresh=0 / rc_lookahead=240 / rc=2pass / mbtree=1 / bitrate=17800 / ratetol=1.0 / qcomp=0.70 / qpmin=0 / qpmax=69 / qpstep=4 / cplxblur=20.0 / qblur=0.5 / ip_ratio=1.20 / aq=1:1.05
Язык : English
Аудио #1
Идентификатор : 2
Формат : DTS
Формат/Информация : Digital Theater Systems
Идентификатор кодека : A_DTS
Продолжительность : 2 ч. 22 м.
Вид битрейта : Постоянный
Битрейт : 1510 Кбит/сек
Каналы : 6 каналов
Расположение каналов : Front: L C R, Side: L R, LFE
Частота : 48,0 КГц
Битовая глубина : 16 бит
Метод сжатия : С потерями
Размер потока : 1,50 Гбайт (7%)
Язык : Russian
Аудио #2
Идентификатор : 3
Формат : DTS
Формат/Информация : Digital Theater Systems
Идентификатор кодека : A_DTS
Продолжительность : 2 ч. 22 м.
Вид битрейта : Постоянный
Битрейт : 1510 Кбит/сек
Каналы : 6 каналов
Расположение каналов : Front: L C R, Side: L R, LFE
Частота : 48,0 КГц
Битовая глубина : 24 бит
Метод сжатия : С потерями
Размер потока : 1,50 Гбайт (7%)
Язык : English
Текст #1
Идентификатор : 4
Формат : UTF-8
Идентификатор кодека : S_TEXT/UTF8
Идентификатор кодека/Информация : UTF-8 Plain Text
Язык : Russian
Текст #2
Идентификатор : 5
Формат : UTF-8
Идентификатор кодека : S_TEXT/UTF8
Идентификатор кодека/Информация : UTF-8 Plain Text
Язык : Russian
Текст #3
Идентификатор : 6
Формат : UTF-8
Идентификатор кодека : S_TEXT/UTF8
Идентификатор кодека/Информация : UTF-8 Plain Text
Язык : English
Текст #4
Идентификатор : 7
Формат : UTF-8
Идентификатор кодека : S_TEXT/UTF8
Идентификатор кодека/Информация : UTF-8 Plain Text
Заголовок : SDH
Язык : English
Меню
00:00:00.000 : en:00:00:00.000
00:10:05.814 : en:00:10:05.814
00:18:00.079 : en:00:18:00.079
00:25:05.879 : en:00:25:05.879
00:31:12.662 : en:00:31:12.662
00:43:28.564 : en:00:43:28.564
00:50:38.702 : en:00:50:38.702
00:56:58.915 : en:00:56:58.915
01:06:57.764 : en:01:06:57.764
01:15:58.971 : en:01:15:58.971
01:22:06.046 : en:01:22:06.046
01:29:00.418 : en:01:29:00.418
01:38:00.750 : en:01:38:00.750
01:43:19.193 : en:01:43:19.193
01:57:56.611 : en:01:57:56.611
02:09:26.550 : en:02:09:26.550

Знаете ли Вы, что...

  • Фильм снят по роману американской писательницы Сьюзен Коллинз «Голодные игры», написанному в 2008 году.

Скриншоты

[Торрент-статистика]
[Профиль]  [ЛС] 
Показать сообщения:    
Ответить на тему

Текущее время: Сегодня 16:58

Часовой пояс: GMT + 4



Вы не можете начинать темы
Вы не можете отвечать на сообщения
Вы не можете редактировать свои сообщения
Вы не можете удалять свои сообщения
Вы не можете голосовать в опросах
Вы не можете прикреплять файлы к сообщениям
Вы не можете скачивать файлы