Бэтмэн / Batman (Тим Бёртон / Tim Burton) (Двухлогия) [1989-1992 , США, Великобритания, фантастика, боевик, триллер, криминал, BDRip 1080р] Dub

Ответить на тему
 
Автор
Сообщение

kaliasa ®

Пол:

Стаж: 5 лет 4 месяца

Сообщений: 113

Репутация: 84 [+] [-]

Пост 25-Июл-2012 07:29

[Цитировать] 

Бэтмэн / Batman -Страна: США, Великобритания
Жанр: фантастика, боевик, триллер, криминал
Год выпуска: 1989
Продолжительность: 02:06:19
Перевод: Профессиональный (дублированный) BD CCE
Cубтитры: rus, eng, eng hearing, fin, swe, nor, dk, nl, porto, spa, fre, cze, ger, ita, pol, turk.-Режиссер: Тим Бёртон / Tim Burton
Сценарий: Сэм Хэмм / Sam Hamm, Уоррен Скаарен / Warren Skaaren, Боб Кэйн / Bob Kane
Продюсер: Питер Губер / Peter Guber, Джон Питерс / Jon Peters, Барбара Калиш / Barbara Kalish, Крис Кенни / Chris Kenny, Бенджамин Мельникер / Benjamin Melniker
Оператор: Роджер Прэтт / Roger Pratt
Композитор: Дэнни Элфман / Danny Elfman-В ролях: Майкл Китон (Batman / Bruce Wayne,), Джек Николсон (Joker / Jack Napier,), Ким Бейсингер (Vicki Vale,), Роберт Вул (Alexander Knox), Пэт Хингл (Commissioner James Gordon), Билли Ди Уильямс (Harvey Dent), Майкл Гоф (Alfred Pennyworth), Джек Пэланс (Carl Grissom), Джерри Холл (Alicia Hunt), Трейси Уолтер (Bob the Goon), Ли Уоллес (The Mayor), Уильям Хуткинс (Lt. Eckhardt,)-Роли дублировали: Владимир Вихров (Batman / Bruce Wayne), Андрей Ташков (Batman / Bruce Wayne (Варус-Видео)), Владимир Еремин (Joker / Jack Napier), Дмитрий Полонский (Joker / Jack Napier (Варус-Видео)), Анна Каменкова (Vicki Vale), Марина Дюжева (Vicki Vale (Варус-Видео)), Вадим Курков (Alexander Knox (Варус-Видео)), Василий Куприянов, Виктор Петров, Дмитрий Филимонов, Леонид Белозорович, Людмила Ильина
Описание: Извечное противостояние добра и зла: сумасшедший, но обаятельный злодей Джокер - смертельная угроза для города Готэма. Бескомпромиссный и загадочный Бэтмэн - его последняя надежда на спасение. Только герой-спаситель не желает раскрывать свое подлинное имя, и не только из скромности… Но настойчивая журналистка, полна решимости узнать, кому жители Готэма обязаны всем…-СЕМПЛ
Семпл к фильму Бэтмэн-Рейтинг:
kinopoisk.ru: 7.599 (19 493)
imdb.com: 7.60 (141 885)
MPAA: PG-13 - Детям до 13 лет просмотр не желателен-Бюджет: $35 000 000
Сборы в США: $251 188 924
Сборы в мире: $411 348 924-Мировая премьера: 19 июня 1989
Релиз на DVD: 3 марта 2011, «CP-Digital»
Релиз на Blu-ray: 18 августа 2009, «Юниверсал Пикчерс Рус»-Качество видео: BDRip 1080р
Формат видео: MKV
Видео кодек: x264
Аудио кодек: AC3,DTS
Видео: x264; 1920x1080 (16:9); 11500 Kbps; 23,976 fps; 0,232 bpp
Аудио 1: AC3; 48 kHz, 448 Kbps; CBR; 6 ch |Дубляж, BD CCE|
Аудио 2: AC3; 48 kHz, 192 Kbps; CBR; 2 ch |Дубляж, Варус Видео|
Аудио 3: AC3; 48 kHz, 192 Kbps; CBR; 2 ch |Профессиональный многоголосый закадровый, ОРТ|
Аудио 4: AC3; 48 kHz, 192 Kbps; CBR; 2 ch |Профессиональный многоголосый закадровый, Россия|
Аудио 5: AC3; 48 kHz, 192 Kbps; CBR; 2 ch |Профессиональный многоголосый закадровый, НТВ|
Аудио 6: AC3; 48 kHz, 384 Kbps; CBR; 6 ch |Авторский одноголосый закадровый, А.Гаврилов|
Аудио 7: AC3; 48 kHz, 256 Kbps; CBR; 2 ch |Авторский одноголосый закадровый, В. Горчаков|
Аудио 8: AC3; 48 kHz, 448 Kbps; CBR; 6 ch |Авторский одноголосый закадровый, Л.Володарский|
Аудио 9: English; DTS; 48 kHz, 1510 Kbps; CBR; 6 ch; 24 bit
Аудио 10: English; Vorbis; 48 kHz, 80 Kbps; CBR; 2 ch |Commentary|
Формат субтитров: softsub (SSA/ASS)-

Знаете ли Вы, что...

# На роль Бэтмэна пробовались Алек Болдуин, Чарли Шин, Билл Мюррэй и Пирс Броснан. Однако главным кандидатом был все-таки Мэл Гибсон. Но актер предпочел сняться в картине «Смертельное оружие 2».
# Главную роль также хотел исполнить Адам Вест, уже примерявший на себя Бэт-костюм в рамках телесериала 1966 года. Однако автор комикса Боб Кейн высказался за кандидатуру Майкла Китона.
# Дизайнер Энтон Ферст для придания городу Готхэм-Сити более зловещего и уродливого вида, смешал несопоставимые архитектурные стили. Результат превзошел все ожидания.
# Около 750 миллионов долларов было выручено на продаже различной атрибутики (майки, кепки, игрушки, видеоигры).
# Майкл Китон потратил около двух месяцев на подготовку к роли, в частности, он изучал кикбоксинг под руководством своего тренера и дублера Дэвида Ли. В результате практически все сцены Майкл смог исполнить, не прибегая к помощи дублера. Он потребовался лишь для съемки сцен, связанных с повышенным риском для жизни.
# Джек Николсон согласился сыграть Джокера с условием получения определенного процента со сборов. В результате эта сумма составила 60 миллионов долларов.
# Тим Бёртон и Майкл Китон за время работы над картиной внесли кучу поправок в сценарий. Самым ярким новшеством стала знаменитая фраза «Я Бэтмэн» (I’m Batman). В оригинале было: «Я — ночь!» (I am the night).
# Самый первый сценарий к фильму появился еще в 1980 году. Его автором стал Том Манкевич, автор сценария к «Супермэну» (1978). В сценарии Тома в качестве злодеев значились Джокер и Пингвин, а также по ходу действия всплывали Руперт Торн и Барбара Гордон. В конце фильма должен был появиться Робин.
# Картина по сценарию Тома должна была появиться в 1985 году, бюджет картины мог составить 20 миллионов долларов. В итоге было принято решение заморозить проект.
# В 1985 году Тиму Бёртону поступило предложение поработать над реализацией этого сценария. Ознакомившись с наработками Тома, Бёртон принял решение полностью переделать сценарий. Вместе со своей подружкой Джулии Хиксон Бёртон сваял 30-страничный набросок истории, который получил одобрение со стороны продюсеров.
# После этого было опробовано несколько сценаристов, пока на горизонте не появился Уоррен Скаарен, вместе с которым Бёртон работал над созданием «Битлджуса» (1988). Впрочем, его предшественник Сэм Хэмм также был провозглашен одним из сценаристов картины.
# Съемки начались в октябре 1988 года и продлились всего 12 недель.
# Рики Эдисон Рид успешно прошел кастинг и получил роль Робина. Однако после того, как было принято решение упразднить этого персонажа, Рики тут же лишился роли.
# Костюм бэтмэна весил чуть больше 30 кг.
# Роль Джокера могли исполнить Тим Карри и Рэй Лиотта. Также эту роль вполне мог получить Робин Уильямс. Чуть позже Уильямс вспоминал: «Джека выбрали сразу, однако он колебался. Тогда студия предложила эту роль мне, я тоже взял время на размышление. А в это время Джеку сообщили, что на эту роль претендую я, и, скорее всего, приму это предложение. Николсон тут же согласился. Обидно, что меня использовали в этих хитрых продюсерских играх».
# Билли Ди Уильямс сыграл роль Харви Дента. Билли согласился на эту роль, чтобы в последующих сиквелах сыграть Двуличного, в которого перевоплощается Харви Дент. Однако, когда настало время Двуличного, продюсеры предпочли взять на нее Томми Ли Джонса.
# Настоящее имя Джокера — Джек Напьер. Эту фамилию носил актер Алан Напьер, сыгравший в телесериале Альфреда. Алан умер за два месяца до начала съемок, и тогда было принято решение отдать дань актеру именно таким образом.
# Исполнительница роли Вики Вейл, актриса Ким Бесинджер, всего на 7 см ниже Майкла Китона. Для того, чтобы Китон выглядел выше, Ким было запрещено одевать обувь на высоком каблуке.
# Для работы над саундтреком к фильму планировалось привлечь Майкла Джексона. Джексон был вынужден отказаться от предложенной работы из-за жесткого графика концертных гастролей.
# Первоначально в качестве режиссеров планировалось пригласить братьев Коэнов.
# К моменту выхода картины на видео от зрителей были получены жалобы, что фильм получился слишком уж темным и мрачным, причем до такой степени, что иногда вообще непонятно, что происходит на экране. В результате на видео картинку сделали более светлой.
# В фильме убийцей родителей Брюса Уэйна стал Джокер. В комиксах же эту ответственность взвалил на свои плечи Джо Чилл. Данная оплошность была исправлена в картине «Бэтмэн: Начало» (2005).

MediaInfo

General
Unique ID : 243373293744862164989010172622035512629 (0xB717FDCCF68B0635B119F2C60CB06D35)
Complete name : Batman Anthology.BDRip.1080p.AVC\Batman.1989.1080p.BDRip.DTS,AC3.x264.mkv
Format : Matroska
Format version : Version 2
File size : 13.6 GiB
Duration : 2h 6mn
Overall bit rate mode : Variable
Overall bit rate : 15.4 Mbps
Movie name : Batman (1989)
Encoded date : UTC 2012-03-04 17:24:11
Writing application : mkvmerge v5.3.0 ('I could have danced') built on Feb 9 2012 10:38:07
Writing library : libebml v1.2.3 + libmatroska v1.3.0
Attachment : Yes / Yes / Yes
Video #1
ID : 1
Format : AVC
Format/Info : Advanced Video Codec
Format profile : High@L4.1
Format settings, CABAC : Yes
Format settings, ReFrames : 4 frames
Codec ID : V_MPEG4/ISO/AVC
Duration : 2h 6mn
Bit rate : 11.5 Mbps
Width : 1 920 pixels
Height : 1 080 pixels
Display aspect ratio : 16:9
Frame rate : 23.976 fps
Color space : YUV
Chroma subsampling : 4:2:0
Bit depth : 8 bits
Scan type : Progressive
Bits/(Pixel*Frame) : 0.232
Stream size : 9.92 GiB (73%)
Title : 11.5 Mbps AVC MPEG-4
Writing library : x264 core 65 r1080M 56e9183
Encoding settings : cabac=1 / ref=4 / deblock=1:-3:-3 / analyse=0x3:0x113 / me=umh / subme=9 / psy_rd=0.8:0.0 / mixed_ref=1 / me_range=24 / chroma_me=1 / trellis=2 / 8x8dct=1 / cqm=0 / deadzone=21,11 / chroma_qp_offset=-2 / threads=6 / nr=0 / decimate=1 / mbaff=0 / bframes=3 / b_pyramid=1 / b_adapt=2 / b_bias=0 / direct=3 / wpredb=1 / keyint=250 / keyint_min=25 / scenecut=40(pre) / rc=2pass / bitrate=11548 / ratetol=1.0 / qcomp=0.60 / qpmin=10 / qpmax=51 / qpstep=4 / cplxblur=20.0 / qblur=0.5 / vbv_maxrate=38000 / vbv_bufsize=38000 / ip_ratio=1.40 / pb_ratio=1.30 / aq=1:0.80
Language : English
Audio #2
ID : 2
Format : AC-3
Format/Info : Audio Coding 3
Mode extension : CM (complete main)
Codec ID : A_AC3
Duration : 2h 6mn
Bit rate mode : Constant
Bit rate : 448 Kbps
Channel(s) : 6 channels
Channel positions : Front: L C R, Side: L R, LFE
Sampling rate : 48.0 KHz
Bit depth : 16 bits
Compression mode : Lossy
Stream size : 405 MiB (3%)
Title : Дубляж BD CCE
Language : Russian
Audio #3
ID : 3
Format : AC-3
Format/Info : Audio Coding 3
Mode extension : CM (complete main)
Codec ID : A_AC3
Duration : 2h 6mn
Bit rate mode : Constant
Bit rate : 192 Kbps
Channel(s) : 2 channels
Channel positions : Front: L R
Sampling rate : 48.0 KHz
Bit depth : 16 bits
Compression mode : Lossy
Stream size : 173 MiB (1%)
Title : Дубляж Варус Видео
Language : Russian
Audio #4
ID : 4
Format : AC-3
Format/Info : Audio Coding 3
Mode extension : CM (complete main)
Codec ID : A_AC3
Duration : 2h 6mn
Bit rate mode : Constant
Bit rate : 192 Kbps
Channel(s) : 2 channels
Channel positions : Front: L R
Sampling rate : 48.0 KHz
Bit depth : 16 bits
Compression mode : Lossy
Stream size : 173 MiB (1%)
Title : ОРТ
Language : Russian
Audio #5
ID : 5
Format : AC-3
Format/Info : Audio Coding 3
Mode extension : CM (complete main)
Codec ID : A_AC3
Duration : 2h 6mn
Bit rate mode : Constant
Bit rate : 192 Kbps
Channel(s) : 2 channels
Channel positions : Front: L R
Sampling rate : 48.0 KHz
Bit depth : 16 bits
Compression mode : Lossy
Stream size : 173 MiB (1%)
Title : Россия
Language : Russian
Audio #6
ID : 6
Format : AC-3
Format/Info : Audio Coding 3
Mode extension : CM (complete main)
Codec ID : A_AC3
Duration : 2h 6mn
Bit rate mode : Constant
Bit rate : 192 Kbps
Channel(s) : 2 channels
Channel positions : Front: L R
Sampling rate : 48.0 KHz
Bit depth : 16 bits
Compression mode : Lossy
Stream size : 173 MiB (1%)
Title : НТВ
Audio #7
ID : 7
Format : AC-3
Format/Info : Audio Coding 3
Mode extension : CM (complete main)
Codec ID : A_AC3
Duration : 2h 6mn
Bit rate mode : Constant
Bit rate : 384 Kbps
Channel(s) : 6 channels
Channel positions : Front: L C R, Side: L R, LFE
Sampling rate : 48.0 KHz
Bit depth : 16 bits
Compression mode : Lossy
Stream size : 347 MiB (2%)
Title : Гаврилов
Language : Russian
Audio #8
ID : 8
Format : AC-3
Format/Info : Audio Coding 3
Mode extension : CM (complete main)
Codec ID : A_AC3
Duration : 2h 6mn
Bit rate mode : Constant
Bit rate : 256 Kbps
Channel(s) : 2 channels
Channel positions : Front: L R
Sampling rate : 48.0 KHz
Bit depth : 16 bits
Compression mode : Lossy
Stream size : 231 MiB (2%)
Title : Горочаков
Language : Russian
Audio #9
ID : 9
Format : AC-3
Format/Info : Audio Coding 3
Mode extension : CM (complete main)
Codec ID : A_AC3
Duration : 2h 6mn
Bit rate mode : Constant
Bit rate : 448 Kbps
Channel(s) : 6 channels
Channel positions : Front: L C R, Side: L R, LFE
Sampling rate : 48.0 KHz
Bit depth : 16 bits
Compression mode : Lossy
Stream size : 405 MiB (3%)
Title : Володарский
Language : Russian
Audio #10
ID : 10
Format : DTS
Format/Info : Digital Theater Systems
Codec ID : A_DTS
Duration : 2h 6mn
Bit rate mode : Constant
Bit rate : 1 510 Kbps
Channel(s) : 6 channels
Channel positions : Front: L C R, Side: L R, LFE
Sampling rate : 48.0 KHz
Bit depth : 24 bits
Compression mode : Lossy
Stream size : 1.33 GiB (10%)
Title : DTS 5.1, 1536 kbps
Language : English
Audio #11
ID : 11
Format : Vorbis
Format settings, Floor : 1
Codec ID : A_VORBIS
Duration : 2h 6mn
Bit rate mode : Variable
Bit rate : 80.0 Kbps
Channel(s) : 2 channels
Sampling rate : 48.0 KHz
Compression mode : Lossy
Stream size : 72.3 MiB (1%)
Title : Commentary
Writing library : libVorbis 1.1.1/1.1.2 (UTC 2005-03-04)
Language : English
Text #12
ID : 12
Format : UTF-8
Codec ID : S_TEXT/UTF8
Codec ID/Info : UTF-8 Plain Text
Title : Rus
Language : Russian
Text #13
ID : 13
Format : ASS
Codec ID : S_TEXT/ASS
Codec ID/Info : Advanced Sub Station Alpha
Compression mode : Lossless
Language : English
Text #14
ID : 14
Format : ASS
Codec ID : S_TEXT/ASS
Codec ID/Info : Advanced Sub Station Alpha
Compression mode : Lossless
Title : Hearing impaired
Language : English
Text #15
ID : 15
Format : ASS
Codec ID : S_TEXT/ASS
Codec ID/Info : Advanced Sub Station Alpha
Compression mode : Lossless
Language : Czech
Text #16
ID : 16
Format : ASS
Codec ID : S_TEXT/ASS
Codec ID/Info : Advanced Sub Station Alpha
Compression mode : Lossless
Language : Danish
Text #17
ID : 17
Format : ASS
Codec ID : S_TEXT/ASS
Codec ID/Info : Advanced Sub Station Alpha
Compression mode : Lossless
Language : Finnish
Text #18
ID : 18
Format : ASS
Codec ID : S_TEXT/ASS
Codec ID/Info : Advanced Sub Station Alpha
Compression mode : Lossless
Language : French
Text #19
ID : 19
Format : ASS
Codec ID : S_TEXT/ASS
Codec ID/Info : Advanced Sub Station Alpha
Compression mode : Lossless
Language : German
Text #20
ID : 20
Format : ASS
Codec ID : S_TEXT/ASS
Codec ID/Info : Advanced Sub Station Alpha
Compression mode : Lossless
Language : Italian
Text #21
ID : 21
Format : ASS
Codec ID : S_TEXT/ASS
Codec ID/Info : Advanced Sub Station Alpha
Compression mode : Lossless
Language : Dutch
Text #22
ID : 22
Format : ASS
Codec ID : S_TEXT/ASS
Codec ID/Info : Advanced Sub Station Alpha
Compression mode : Lossless
Language : Norwegian
Text #23
ID : 23
Format : ASS
Codec ID : S_TEXT/ASS
Codec ID/Info : Advanced Sub Station Alpha
Compression mode : Lossless
Language : Polish
Text #24
ID : 24
Format : ASS
Codec ID : S_TEXT/ASS
Codec ID/Info : Advanced Sub Station Alpha
Compression mode : Lossless
Language : Portuguese
Text #25
ID : 25
Format : ASS
Codec ID : S_TEXT/ASS
Codec ID/Info : Advanced Sub Station Alpha
Compression mode : Lossless
Language : Spanish
Text #26
ID : 26
Format : ASS
Codec ID : S_TEXT/ASS
Codec ID/Info : Advanced Sub Station Alpha
Compression mode : Lossless
Language : Swedish
Text #27
ID : 27
Format : ASS
Codec ID : S_TEXT/ASS
Codec ID/Info : Advanced Sub Station Alpha
Compression mode : Lossless
Language : Turkish
Menu
00:00:00.000 : en:00:00:00.000
00:02:32.944 : en:00:02:32.944
00:07:03.882 : en:00:07:03.882
00:09:26.858 : en:00:09:26.858
00:12:22.325 : en:00:12:22.325
00:14:42.131 : en:00:14:42.131
00:17:03.981 : en:00:17:03.981
00:20:05.454 : en:00:20:05.454
00:23:58.062 : en:00:23:58.062
00:27:05.999 : en:00:27:05.999
00:30:25.615 : en:00:30:25.615
00:34:12.509 : en:00:34:12.509
00:36:13.797 : en:00:36:13.797
00:38:24.552 : en:00:38:24.552
00:41:06.297 : en:00:41:06.297
00:45:06.746 : en:00:45:06.746
00:48:07.051 : en:00:48:07.051
00:50:51.715 : en:00:50:51.715
00:54:19.131 : en:00:54:19.131
00:57:54.346 : en:00:57:54.346
00:59:34.321 : en:00:59:34.321
01:06:38.036 : en:01:06:38.036
01:12:24.173 : en:01:12:24.173
01:16:29.210 : en:01:16:29.210
01:18:19.111 : en:01:18:19.111
01:21:10.699 : en:01:21:10.699
01:25:30.083 : en:01:25:30.083
01:27:24.990 : en:01:27:24.990
01:29:32.951 : en:01:29:32.951
01:33:58.049 : en:01:33:58.049
01:35:50.370 : en:01:35:50.370
01:38:15.807 : en:01:38:15.807
01:42:43.866 : en:01:42:43.866
01:46:34.263 : en:01:46:34.263
01:50:10.979 : en:01:50:10.979
01:53:20.210 : en:01:53:20.210
01:59:43.218 : en:01:59:43.218
02:02:30.260 : en:02:02:30.260
02:06:19.238 : en:02:06:19.238

Награды

-Оскар, 1990 год
Победитель (1):
Лучшие декорации

Скриншот c названием фильма

Скриншоты

Бэтмэн возвращается / Batman Returns
-Год выпуска: 1992
Страна: США, Великобритания
Слоган: «Возвращение 19 июня!»
Жанр: фэнтези, боевик, триллер, криминал
Продолжительность: 02:06:28
Перевод: Профессиональный (полное дублирование) BD CCE
Субтитры: Russian, English-Режиссер: Тим Бёртон / Tim Burton
Сценарий: Боб Кэйн / Bob Kane, Дэниэл Уотерс / Daniel Waters, Сэм Хэмм / Sam Hamm
Продюсер: Йен Брюс / Ian Bryce, Тим Бёртон / Tim Burton, Денис Ди Нови / Denise Di Novi, Ларри Дж. Франко / Larry J. Franco, Питер Губер / Peter Guber
Оператор: Стефан Чапски / Stefan Czapsky
Композитор: Дэнни Элфман / Danny Elfman, Стивен Северин / Steven Severin, Сьюзи Сью / Siouxsie Sioux, Алонсо Миллер / Alonzo Miller-В ролях: Майкл Китон (Batman, Bruce Wayne), Дэнни ДеВито (Penguin, Oswald Cobblepot), Мишель Пфайффер (Catwoman, Selina Kyle,), Кристофер Уокен (Max Shreck), Майкл Гоф (Alfred Pennyworth), Майкл Мерфи (The Mayor), Кристи Конэуэй (Ice Princess), Эндрю Бринярски (Charles 'Chip' Shreck), Пэт Хингл (Commissioner James T. Gordon), Винсент Скьявелли (Organ Grinder), Джен Хукс (Jen), Стив Уиттинг (Josh)-Роли дублировали: Владимир Конкин (Batman, Bruce Wayne), Андрей Ташков (Batman, Bruce Wayne (Варус-Видео)), Вадим Андреев (Penguin, Oswald Cobblepot), Владимир Ферапонтов (Penguin, Oswald Cobblepot (Варус-Видео); Commissioner James T. Gordon (Варус-Видео)), Наталья Казначеева (Catwoman, Selina Kyle), Анна Каменкова (Catwoman, Selina Kyle (Варус-Видео)), Леонид Белозорович (Max Shreck), Никита Прозоровский (Max Shreck (Варус-Видео)), Рудольф Панков, Борис Быстров (Alfred Pennyworth (Варус-Видео)), Александр Новиков (The Mayor (Варус-Видео); Organ Grinder (Варус-Видео)), Сергей Быстрицкий-Описание: Городу Готэму угрожают два страшных преступника: эксцентричный и зловещий Пингвин и грациозная и таинственная Женщина-Кошка. Сможет ли Бэтмэн справиться с двумя грозными противниками одновременно? Тем более что один из них намерен стать мэром, а другая испытывает романтическое влечение к Готэмскому герою.-СЕМПЛ
Семпл к фильму Бэтмэн возвращается-Рейтинг:
kinopoisk.ru: 7.500 (14 862)
imdb.com: 6.90 (106 064)
MPAA: PG-13 - Детям до 13 лет просмотр не желателен-Бюджет: $80 000 000
Сборы в США: $162 831 698
Сборы в мире: $266 831 698-Мировая премьера: 16 июня 1992
Релиз на DVD: 3 марта 2011, «CP-Digital»
Релиз на Blu-ray: 18 августа 2009, «Юниверсал Пикчерс Рус»-Качество: BDRip 1080p
Формат: MKV
Видео кодек: x264
Аудио кодек: DTS, AC3
Видео: x264; 1912x1080 (16:9); 11000 Kbps; 23,976 fps; 0,222 bpp
Аудио 1 DTS; 48 kHz, 755 Kbps; CBR; 6 ch; 24 bit |Дубляж, BD CCE|
Аудио 2 AC3; 48 kHz, 192 Kbps; CBR; 2 ch |Дубляж, Варус Видео|
Аудио 3 AC3; 48 kHz, 448 Kbps; CBR; 2 ch |Профессиональный двухголосый закадровый, НТВ|
Аудио 4 AC3; 48 kHz, 192 Kbps; CBR; 2 ch |Профессиональный многоголосый закадровый, НТВ|
Аудио 5 AC3; 48 kHz, 192 Kbps; CBR; 2 ch |Авторский одноголосый закадровый, А.Гаврилов| VHS (ранний)
Аудио 6 AC3; 48 kHz, 384 Kbps; CBR; 6 ch |Авторский одноголосый закадровый, А.Гаврилов| (поздний)
Аудио 7 AC3; 48 kHz, 640 Kbps; CBR; 6 ch |Авторский одноголосый закадровый, Ю.Живов|
Аудио 8 English; DTS; 48 kHz, 1510 Kbps; CBR; 6 ch; 24 bit
Аудио 9 English; Vorbis; 48 kHz, 80 Kbps; 2 ch |Commentary|-

Знаете ли Вы, что...

# ДеВито было запрещено рассказывать о своем персонаже даже родственникам.
# Злодей пытается взорвать город с помощью пингвинов, заставив их перенести на спинках динамит. Общество по защите прав животных подало иск на создателей фильма, заявив, что они жестко обращались с пингвинами. Они не знали, что настоящих пингвинов не было - это были куклы.
# Роль Женщины-кошки должна была исполнить Аннетт Бенинг, но она забеременела и выбыла из проекта. За роль сражалась Шон Янг, которой не удалось сыграть журналистку Викки в первом «Бэтмене».
# После выхода фильма Тим Бёртон вел переговоры о третьей части Бэтмена, но представители Warner Brothers дали понять о своём нежелании продолжать совместную работу.
# Композитор фильма Дэнни Эльфман присутствует в толпе в эпизоде забрасывания Человека-Пингвина гнилыми овощами.
# Имя персонажа Кристофера Уокена - это имя немецкого кино-актера Макса Шрека, прославившегося в частности исполнением роли графа Орлока, вампира в классическом фильме ужасов «Носферату. Симфония ужаса» (1922).
# Первый кинофильм, появившийся в кинотеатрах в звуке Dolby Digital.
# Джек Николсон за роль Джокера вместо гонорара получил 60 миллионов долларов за счет отчислений от прибыли и получает их до сих пор с каждого показа фильма, за что попал в «Книгу рекордов Гиннеса». Аналогичные условия выставил Денни ДеВито, но руководство компании Warner bros. ему отказало.

MediaInfo

General
Unique ID : 240178885163284741206597812658670024935 (0xB4B0C54C3CF5299E9EA0C2E9C5DA38E7)
Complete name : C:\Batman Anthology.BDRip.1080p.AVC\Batman Returns. 1992. 1080p BDRip.DTS,AC3 x264-CtrlHD.mkv
Format : Matroska
Format version : Version 2
File size : 13.9 GiB
Duration : 2h 6mn
Overall bit rate mode : Variable
Overall bit rate : 15.7 Mbps
Movie name : Batman Returns (1992)
Encoded date : UTC 2012-03-04 20:20:45
Writing application : mkvmerge v5.3.0 ('I could have danced') built on Feb 9 2012 10:38:07
Writing library : libebml v1.2.3 + libmatroska v1.3.0
Attachment : Yes / Yes / Yes
Video #1
ID : 1
Format : AVC
Format/Info : Advanced Video Codec
Format profile : High@L4.0
Format settings, CABAC : Yes
Format settings, ReFrames : 4 frames
Codec ID : V_MPEG4/ISO/AVC
Duration : 2h 6mn
Bit rate : 11.0 Mbps
Width : 1 912 pixels
Height : 1 080 pixels
Display aspect ratio : 16:9
Frame rate : 23.976 fps
Color space : YUV
Chroma subsampling : 4:2:0
Bit depth : 8 bits
Scan type : Progressive
Bits/(Pixel*Frame) : 0.222
Stream size : 9.73 GiB (70%)
Title : Vedio
Writing library : x264 core 65 r1077M e46f648
Encoding settings : cabac=1 / ref=4 / deblock=1:-3:-3 / analyse=0x3:0x133 / me=umh / subme=9 / psy_rd=1.2:0.0 / mixed_ref=1 / me_range=32 / chroma_me=1 / trellis=2 / 8x8dct=1 / cqm=0 / deadzone=21,11 / chroma_qp_offset=-2 / threads=6 / nr=0 / decimate=1 / mbaff=0 / bframes=7 / b_pyramid=1 / b_adapt=2 / b_bias=0 / direct=3 / wpredb=1 / keyint=250 / keyint_min=25 / scenecut=40(pre) / rc=crf / crf=20.0 / qcomp=0.60 / qpmin=10 / qpmax=51 / qpstep=4 / ip_ratio=1.40 / pb_ratio=1.30 / aq=1:0.80
Language : English
Audio #2
ID : 2
Format : DTS
Format/Info : Digital Theater Systems
Codec ID : A_DTS
Duration : 2h 6mn
Bit rate mode : Constant
Bit rate : 755 Kbps
Channel(s) : 6 channels
Channel positions : Front: L C R, Side: L R, LFE
Sampling rate : 48.0 KHz
Bit depth : 24 bits
Compression mode : Lossy
Stream size : 683 MiB (5%)
Title : Дубляж BD CCE
Language : Russian
Audio #3
ID : 3
Format : AC-3
Format/Info : Audio Coding 3
Mode extension : CM (complete main)
Codec ID : A_AC3
Duration : 2h 6mn
Bit rate mode : Constant
Bit rate : 192 Kbps
Channel(s) : 2 channels
Channel positions : Front: L R
Sampling rate : 48.0 KHz
Bit depth : 16 bits
Compression mode : Lossy
Stream size : 174 MiB (1%)
Title : Дубляж Варус Видео
Language : Russian
Audio #4
ID : 4
Format : AC-3
Format/Info : Audio Coding 3
Mode extension : CM (complete main)
Codec ID : A_AC3
Duration : 2h 6mn
Bit rate mode : Constant
Bit rate : 448 Kbps
Channel(s) : 2 channels
Channel positions : Front: L R
Sampling rate : 44.1 KHz
Bit depth : 16 bits
Compression mode : Lossy
Stream size : 405 MiB (3%)
Title : DVO НТВ
Language : Russian
Audio #5
ID : 5
Format : AC-3
Format/Info : Audio Coding 3
Mode extension : CM (complete main)
Codec ID : A_AC3
Duration : 2h 6mn
Bit rate mode : Constant
Bit rate : 192 Kbps
Channel(s) : 2 channels
Channel positions : Front: L R
Sampling rate : 48.0 KHz
Bit depth : 16 bits
Compression mode : Lossy
Stream size : 174 MiB (1%)
Title : MVO НТВ
Language : Russian
Audio #6
ID : 6
Format : AC-3
Format/Info : Audio Coding 3
Mode extension : CM (complete main)
Codec ID : A_AC3
Duration : 2h 6mn
Bit rate mode : Constant
Bit rate : 192 Kbps
Channel(s) : 2 channels
Channel positions : Front: L R
Sampling rate : 44.1 KHz
Bit depth : 16 bits
Compression mode : Lossy
Stream size : 174 MiB (1%)
Title : Гаврилов Ранний-VHS
Language : Russian
Audio #7
ID : 7
Format : AC-3
Format/Info : Audio Coding 3
Mode extension : CM (complete main)
Codec ID : A_AC3
Duration : 2h 6mn
Bit rate mode : Constant
Bit rate : 384 Kbps
Channel(s) : 6 channels
Channel positions : Front: L C R, Side: L R, LFE
Sampling rate : 48.0 KHz
Bit depth : 16 bits
Compression mode : Lossy
Stream size : 347 MiB (2%)
Title : Гаврилов
Language : Russian
Audio #8
ID : 8
Format : AC-3
Format/Info : Audio Coding 3
Mode extension : CM (complete main)
Codec ID : A_AC3
Duration : 2h 6mn
Bit rate mode : Constant
Bit rate : 640 Kbps
Channel(s) : 6 channels
Channel positions : Front: L C R, Side: L R, LFE
Sampling rate : 48.0 KHz
Bit depth : 16 bits
Compression mode : Lossy
Stream size : 579 MiB (4%)
Title : Живов
Language : Russian
Audio #9
ID : 9
Format : DTS
Format/Info : Digital Theater Systems
Codec ID : A_DTS
Duration : 2h 6mn
Bit rate mode : Constant
Bit rate : 1 510 Kbps
Channel(s) : 6 channels
Channel positions : Front: L C R, Side: L R, LFE
Sampling rate : 48.0 KHz
Bit depth : 24 bits
Compression mode : Lossy
Stream size : 1.33 GiB (10%)
Title : Оригинал
Language : English
Audio #10
ID : 10
Format : Vorbis
Format settings, Floor : 1
Codec ID : A_VORBIS
Duration : 2h 6mn
Bit rate mode : Variable
Bit rate : 80.0 Kbps
Channel(s) : 2 channels
Sampling rate : 48.0 KHz
Compression mode : Lossy
Stream size : 72.4 MiB (1%)
Title : Комментарии
Writing library : libVorbis 1.2 (UTC 2007-06-22)
Language : English
Writing application : VLC media player
Text #11
ID : 11
Format : UTF-8
Codec ID : S_TEXT/UTF8
Codec ID/Info : UTF-8 Plain Text
Language : Russian
Text #12
ID : 12
Format : ASS
Codec ID : S_TEXT/ASS
Codec ID/Info : Advanced Sub Station Alpha
Compression mode : Lossless
Language : English

Скриншот c названием фильма

Скриншоты

[Торрент-статистика]
[Профиль]  [ЛС] 
Показать сообщения:    
Ответить на тему

Текущее время: Сегодня 12:29

Часовой пояс: GMT + 4



Вы не можете начинать темы
Вы не можете отвечать на сообщения
Вы не можете редактировать свои сообщения
Вы не можете удалять свои сообщения
Вы не можете голосовать в опросах
Вы не можете прикреплять файлы к сообщениям
Вы не можете скачивать файлы