Белоснежка: Месть гномов / Mirror Mirror (Тарсем Синх) [2012, фэнтези, драма, комедия, приключения, BDRip, 1080p] Лицензия

Ответить на тему
 
Автор
Сообщение

diim ®

Пол:

Стаж: 2 года 9 месяцев

Сообщений: 1034

Репутация: 112 [+] [-]

Пост 14-Июл-2012 16:01

[Цитировать] 

Белоснежка: Месть гномов / Mirror MirrorГод выпуска: 2012
Страна: США
Слоган: «Новые страницы любимой сказки»
Жанр: фэнтези, драма, комедия, приключения
Продолжительность: 01:48:19
Перевод: Профессиональный (полное дублирование)-Режиссер: Тарсем Синх
Сценарий: Джейсон Келлер, Марк Клейн, Мелисса Уоллэк
Продюсер: Берни Голдманн, Райан Кэвэна, Бретт Рэтнер
Оператор: Брендан Гэлвин
Композитор: Алан Менкен
В ролях: Джулия Робертс, Лили Коллинз, Натан Лэйн, Мэр Уиннингэм, Майкл Лернер, Арми Хаммер, Джордан Прентис, Дэнни Вудберн, Марк Повинелли, Мартин Клеббэ, Мэр Уиннингхэм-Бюджет: $85 000 000
Сборы в мире: $160 256 251-Описание: Злая Королева, мечтающая выйти замуж за красивого и богатого Принца, хитростью выдворяет из дворца Белоснежку и берет власть в свои руки. Но милая девушка не погибла в темном дремучем лесу, а связалась с бандой гномов-разбойников. Вместе они отомстят Злодейке!-
MPAA: -Качество: BDRip, 1080p
Формат: Matroska
Видео: AVC; 1920x1080 (16:9); 9996 Kbps; 24 fps; 0,201 bit/pixel
Аудио: DTS; 1509 Kbps; CBR; 6 ch; 24 bit Russian-

MediaInfo

Format : Matroska
Format version : Version 2
File size : 8.88 GiB
Duration : 1h 48mn
Overall bit rate : 11.7 Mbps
Encoded date : UTC 2012-05-29 23:43:56
Writing application : mkvmerge v5.2.0 ('I can't explain') built on Dec 18 2011 18:12:03
Writing library : libebml v1.2.3 + libmatroska v1.3.0
Video
ID : 1
Format : AVC
Format/Info : Advanced Video Codec
Format profile : High@L4.1
Format settings, CABAC : Yes
Format settings, ReFrames : 5 frames
Codec ID : V_MPEG4/ISO/AVC
Duration : 1h 48mn
Bit rate : 9 996 Kbps
Nominal bit rate : 11.0 Mbps
Width : 1 920 pixels
Height : 1 080 pixels
Display aspect ratio : 16:9
Frame rate : 24.000 fps
Color space : YUV
Chroma subsampling : 4:2:0
Bit depth : 8 bits
Scan type : Progressive
Bits/(Pixel*Frame) : 0.201
Stream size : 7.56 GiB (85%)
Writing library : x264 core 125 r2200 999b753
Encoding settings : cabac=1 / ref=5 / deblock=1:-3:-3 / analyse=0x3:0x133 / me=umh / subme=9 / psy=1 / psy_rd=1.00:0.15 / mixed_ref=1 / me_range=24 / chroma_me=1 / trellis=1 / 8x8dct=1 / cqm=0 / deadzone=21,11 / fast_pskip=0 / chroma_qp_offset=-3 / threads=12 / lookahead_threads=2 / sliced_threads=0 / nr=0 / decimate=1 / interlaced=0 / bluray_compat=0 / constrained_intra=0 / bframes=8 / b_pyramid=2 / b_adapt=2 / b_bias=0 / direct=3 / weightb=1 / open_gop=0 / weightp=2 / keyint=250 / keyint_min=24 / scenecut=40 / intra_refresh=0 / rc_lookahead=60 / rc=abr / mbtree=1 / bitrate=11000 / ratetol=1.0 / qcomp=0.60 / qpmin=0 / qpmax=69 / qpstep=4 / ip_ratio=1.40 / aq=1:1.00
Language : Russian
Default : Yes
Forced : No
Audio
ID : 2
Format : DTS
Format/Info : Digital Theater Systems
Codec ID : A_DTS
Duration : 1h 48mn
Bit rate mode : Constant
Bit rate : 1 510 Kbps
Channel(s) : 6 channels
Channel positions : Front: L C R, Side: L R, LFE
Sampling rate : 48.0 KHz
Bit depth : 24 bits
Compression mode : Lossy
Stream size : 1.14 GiB (13%)
Default : Yes
Forced : No
Menu
00:00:00.000 : en:00:00:00.000
00:08:06.458 : en:00:08:06.458
00:18:42.792 : en:00:18:42.792
00:26:28.833 : en:00:26:28.833
00:29:50.708 : en:00:29:50.708
00:38:20.125 : en:00:38:20.125
00:55:32.333 : en:00:55:32.333
01:02:52.250 : en:01:02:52.250
01:13:16.208 : en:01:13:16.208
01:16:29.042 : en:01:16:29.042
01:31:31.583 : en:01:31:31.583
01:38:48.833 : en:01:38:48.833

Знаете ли Вы, что...

  • На роль Белоснежки пробовалась Сирша Ронан.
  • На роль принца рассматривались Алекс Петтифер, Джеймс Холзиер и Джеймс МакЭвой.
  • Костюмы для фильма разработала японский дизайнер, обладательница премии «Оскар» Эйко Исиока.

Скриншоты

[Торрент-статистика]
[Профиль]  [ЛС] 
Показать сообщения:    
Ответить на тему

Текущее время: Сегодня 04:06

Часовой пояс: GMT + 4



Вы не можете начинать темы
Вы не можете отвечать на сообщения
Вы не можете редактировать свои сообщения
Вы не можете удалять свои сообщения
Вы не можете голосовать в опросах
Вы не можете прикреплять файлы к сообщениям
Вы не можете скачивать файлы